<?xml version="1.0" standalone="no"?>
<!DOCTYPE svg PUBLIC "-//W3C//DTD SVG 1.1//EN" "http://www.w3.org/Graphics/SVG/1.1/DTD/svg11.dtd" >
<svg>
<metadata>
Created by FontForge 20120731 at Mon Jun 26 13:20:50 2017
 By www-data
Copyright (c) 2017 by Konstantina Louka. All rights reserved.
</metadata>
<defs>
<font id="Takhie-Regular" horiz-adv-x="335" >
  <font-face 
    font-family="Takhie"
    font-weight="400"
    font-stretch="normal"
    units-per-em="800"
    panose-1="0 0 5 0 0 0 0 0 0 0"
    ascent="640"
    descent="-160"
    x-height="369"
    cap-height="584"
    bbox="-70.441 -332.584 500 900.11"
    underline-thickness="50"
    underline-position="-50"
    unicode-range="U+0020-2260"
  />
<missing-glyph horiz-adv-x="500" 
d="M0 0v700h500v-700h-500zM250 395l170 255h-340zM280 350l170 -255v510zM80 50h340l-170 255zM50 605v-510l170 255z" />
    <glyph glyph-name=".notdef" horiz-adv-x="500" 
d="M0 0v700h500v-700h-500zM250 395l170 255h-340zM280 350l170 -255v510zM80 50h340l-170 255zM50 605v-510l170 255z" />
    <glyph glyph-name="A" unicode="A" horiz-adv-x="356" 
d="M173 576l20 2c11 1 21 -2 29 -11c11 -12 19 -25 22 -42c8 -50 13 -100 20 -150c6 -47 14 -93 19 -140c5 -38 10 -77 10 -115c-1 -35 7 -67 12 -101c6 -32 -26 -19 -32 2c-6 18 -3 37 -4 56c-3 40 -11 80 -13 120c0 6 -2 10 -9 10c-24 0 -48 2 -72 -1
c-18 -2 -21 -26 -26 -41c-9 -23 -11 -52 -15 -77c-5 -24 -13 -73 -24 -78c-1 0 -1 -1 0 -2c-2 -1 -4 -2 -6 -2c-3 -1 -5 -3 -6 -5l-7 -1c-16 -1 -28 10 -39 20c-3 3 -2 7 -2 11c0 27 4 54 8 81c5 36 10 72 16 108c10 58 22 116 39 173c7 25 12 51 20 75c9 30 18 59 28 89
c6 12 -2 1 10 19h2zM224 482c-7 -18 -7 -37 -9 -55c-4 -43 -18 -82 -27 -124c-4 -16 -6 -33 -13 -49c-2 -5 -1 -11 -2 -17c0 -8 4 -11 11 -11c15 0 29 -2 44 -3c23 -2 28 5 25 28c-6 41 -10 82 -16 124c-5 35 -9 71 -13 107z" />
    <glyph glyph-name="Aacute" unicode="&#xc1;" horiz-adv-x="356" 
d="M279 694c4 -2 4 -9 -4 -26c-9 -19 -14 -35 -35 -56l-4 -3c-4 -2 -9 -5 -14 -6c-2 0 -4 0 -7 -1c-15 0 -17 17 -7 37c1 2 1 5 2 7c7 14 17 37 31 45c17 9 29 10 38 3zM173 576l20 2c11 1 21 -2 29 -11c11 -12 19 -25 22 -42c8 -50 13 -100 20 -150c6 -47 14 -93 19 -140
c5 -38 10 -77 10 -115c-1 -35 7 -67 12 -101c6 -32 -26 -19 -32 2c-6 18 -3 37 -4 56c-3 40 -11 80 -13 120c0 6 -2 10 -9 10c-24 0 -48 2 -72 -1c-18 -2 -21 -26 -26 -41c-9 -23 -11 -52 -15 -77c-5 -24 -13 -73 -24 -78c-1 0 -1 -1 0 -2c-2 -1 -4 -2 -6 -2
c-3 -1 -5 -3 -6 -5l-7 -1c-16 -1 -28 10 -39 20c-3 3 -2 7 -2 11c0 27 4 54 8 81c5 36 10 72 16 108c10 58 22 116 39 173c7 25 12 51 20 75c9 30 18 59 28 89c6 12 -2 1 10 19h2zM224 482c-7 -18 -7 -37 -9 -55c-4 -43 -18 -82 -27 -124c-4 -16 -6 -33 -13 -49
c-2 -5 -1 -11 -2 -17c0 -8 4 -11 11 -11c15 0 29 -2 44 -3c23 -2 28 5 25 28c-6 41 -10 82 -16 124c-5 35 -9 71 -13 107z" />
    <glyph glyph-name="Abreve" unicode="&#x102;" horiz-adv-x="356" 
d="M257 677c10 2 19 -2 23 -10c6 -11 2 -18 -5 -27c-14 -13 -41 -20 -60 -21c-14 2 -29 1 -42 10c-9 6 -18 11 -25 18c-5 6 -14 16 -12 25c0 5 2 5 6 5c7 -2 14 -5 18 -10c13 -15 30 -16 49 -14c10 1 20 3 28 9c6 5 12 12 20 15zM173 576l20 2c11 1 21 -2 29 -11
c11 -12 19 -25 22 -42c8 -50 13 -100 20 -150c6 -47 14 -93 19 -140c5 -38 10 -77 10 -115c-1 -35 7 -67 12 -101c6 -32 -26 -19 -32 2c-6 18 -3 37 -4 56c-3 40 -11 80 -13 120c0 6 -2 10 -9 10c-24 0 -48 2 -72 -1c-18 -2 -21 -26 -26 -41c-9 -23 -11 -52 -15 -77
c-5 -24 -13 -73 -24 -78c-1 0 -1 -1 0 -2c-2 -1 -4 -2 -6 -2c-3 -1 -5 -3 -6 -5l-7 -1c-16 -1 -28 10 -39 20c-3 3 -2 7 -2 11c0 27 4 54 8 81c5 36 10 72 16 108c10 58 22 116 39 173c7 25 12 51 20 75c9 30 18 59 28 89c6 12 -2 1 10 19h2zM224 482c-7 -18 -7 -37 -9 -55
c-4 -43 -18 -82 -27 -124c-4 -16 -6 -33 -13 -49c-2 -5 -1 -11 -2 -17c0 -8 4 -11 11 -11c15 0 29 -2 44 -3c23 -2 28 5 25 28c-6 41 -10 82 -16 124c-5 35 -9 71 -13 107z" />
    <glyph glyph-name="Abreveacute" unicode="&#x1eae;" horiz-adv-x="356" 
d="M285 795c4 -2 4 -9 -4 -26c-9 -19 -14 -35 -35 -56l-4 -3c-4 -2 -9 -5 -14 -6c-2 0 -4 0 -7 -1c-15 0 -17 17 -7 37c1 2 1 5 2 7c7 14 17 37 31 45c17 9 29 10 38 3zM264 680c10 2 19 -2 23 -10c6 -11 2 -18 -5 -27c-14 -13 -41 -20 -60 -21c-14 2 -29 1 -42 10
c-9 6 -18 11 -25 18c-5 6 -14 16 -12 25c0 5 2 5 6 5c7 -2 14 -5 18 -10c13 -15 30 -16 49 -14c10 1 20 3 28 9c6 5 12 12 20 15zM173 576l20 2c11 1 21 -2 29 -11c11 -12 19 -25 22 -42c8 -50 13 -100 20 -150c6 -47 14 -93 19 -140c5 -38 10 -77 10 -115
c-1 -35 7 -67 12 -101c6 -32 -26 -19 -32 2c-6 18 -3 37 -4 56c-3 40 -11 80 -13 120c0 6 -2 10 -9 10c-24 0 -48 2 -72 -1c-18 -2 -21 -26 -26 -41c-9 -23 -11 -52 -15 -77c-5 -24 -13 -73 -24 -78c-1 0 -1 -1 0 -2c-2 -1 -4 -2 -6 -2c-3 -1 -5 -3 -6 -5l-7 -1
c-16 -1 -28 10 -39 20c-3 3 -2 7 -2 11c0 27 4 54 8 81c5 36 10 72 16 108c10 58 22 116 39 173c7 25 12 51 20 75c9 30 18 59 28 89c6 12 -2 1 10 19h2zM224 482c-7 -18 -7 -37 -9 -55c-4 -43 -18 -82 -27 -124c-4 -16 -6 -33 -13 -49c-2 -5 -1 -11 -2 -17
c0 -8 4 -11 11 -11c15 0 29 -2 44 -3c23 -2 28 5 25 28c-6 41 -10 82 -16 124c-5 35 -9 71 -13 107z" />
    <glyph glyph-name="Abrevegrave" unicode="&#x1eb0;" horiz-adv-x="356" 
d="M154 832c3 -2 8 -2 10 -5c8 -11 20 -14 29 -22c7 -6 15 -11 21 -20c3 -5 8 -6 11 -9c5 -3 9 -8 15 -11c5 -2 6 -8 11 -11c2 -2 1 -5 -1 -6c-3 -2 -4 -5 -3 -9c1 -3 -2 -7 -3 -8c-4 -3 -4 -8 -5 -13c-1 -8 -12 -10 -18 -5l-27 27c-4 4 -9 8 -10 11c-2 5 -6 3 -8 6
c-2 4 -5 6 -8 10c-7 12 -18 22 -24 35c-4 7 -7 13 -5 20c1 5 2 11 7 10c3 0 5 -4 8 0zM267 683c10 2 19 -2 23 -10c6 -11 2 -18 -5 -27c-14 -13 -41 -20 -60 -21c-14 2 -29 1 -42 10c-9 6 -18 11 -25 18c-5 6 -14 16 -12 25c0 5 2 5 6 5c7 -2 14 -5 18 -10
c13 -15 30 -16 49 -14c10 1 20 3 28 9c6 5 12 12 20 15zM173 576l20 2c11 1 21 -2 29 -11c11 -12 19 -25 22 -42c8 -50 13 -100 20 -150c6 -47 14 -93 19 -140c5 -38 10 -77 10 -115c-1 -35 7 -67 12 -101c6 -32 -26 -19 -32 2c-6 18 -3 37 -4 56c-3 40 -11 80 -13 120
c0 6 -2 10 -9 10c-24 0 -48 2 -72 -1c-18 -2 -21 -26 -26 -41c-9 -23 -11 -52 -15 -77c-5 -24 -13 -73 -24 -78c-1 0 -1 -1 0 -2c-2 -1 -4 -2 -6 -2c-3 -1 -5 -3 -6 -5l-7 -1c-16 -1 -28 10 -39 20c-3 3 -2 7 -2 11c0 27 4 54 8 81c5 36 10 72 16 108c10 58 22 116 39 173
c7 25 12 51 20 75c9 30 18 59 28 89c6 12 -2 1 10 19h2zM224 482c-7 -18 -7 -37 -9 -55c-4 -43 -18 -82 -27 -124c-4 -16 -6 -33 -13 -49c-2 -5 -1 -11 -2 -17c0 -8 4 -11 11 -11c15 0 29 -2 44 -3c23 -2 28 5 25 28c-6 41 -10 82 -16 124c-5 35 -9 71 -13 107z" />
    <glyph glyph-name="Abrevetilde" unicode="&#x1eb4;" horiz-adv-x="356" 
d="M155 799c14 1 28 -5 41 -11c11 -7 19 -16 27 -25c8 -8 23 -9 33 -3c5 3 9 8 10 13c2 5 2 13 5 17c9 8 11 -9 11 -14c-1 -24 -20 -42 -42 -42c-4 1 -7 1 -10 2c-10 3 -17 10 -25 16c-5 3 -9 4 -13 6c-9 5 -18 7 -27 7c-16 1 -22 -9 -29 -23c-4 -8 -15 -18 -23 -12
c-8 5 -8 16 -6 25c4 13 10 21 17 31c9 8 20 12 31 13zM247 689c10 2 19 -2 23 -10c6 -11 2 -18 -5 -27c-14 -13 -41 -20 -60 -21c-14 2 -29 1 -42 10c-9 6 -18 11 -25 18c-5 6 -14 16 -12 25c0 5 2 5 6 5c7 -2 14 -5 18 -10c13 -15 30 -16 49 -14c10 1 20 3 28 9
c6 5 12 12 20 15zM173 576l20 2c11 1 21 -2 29 -11c11 -12 19 -25 22 -42c8 -50 13 -100 20 -150c6 -47 14 -93 19 -140c5 -38 10 -77 10 -115c-1 -35 7 -67 12 -101c6 -32 -26 -19 -32 2c-6 18 -3 37 -4 56c-3 40 -11 80 -13 120c0 6 -2 10 -9 10c-24 0 -48 2 -72 -1
c-18 -2 -21 -26 -26 -41c-9 -23 -11 -52 -15 -77c-5 -24 -13 -73 -24 -78c-1 0 -1 -1 0 -2c-2 -1 -4 -2 -6 -2c-3 -1 -5 -3 -6 -5l-7 -1c-16 -1 -28 10 -39 20c-3 3 -2 7 -2 11c0 27 4 54 8 81c5 36 10 72 16 108c10 58 22 116 39 173c7 25 12 51 20 75c9 30 18 59 28 89
c6 12 -2 1 10 19h2zM224 482c-7 -18 -7 -37 -9 -55c-4 -43 -18 -82 -27 -124c-4 -16 -6 -33 -13 -49c-2 -5 -1 -11 -2 -17c0 -8 4 -11 11 -11c15 0 29 -2 44 -3c23 -2 28 5 25 28c-6 41 -10 82 -16 124c-5 35 -9 71 -13 107z" />
    <glyph glyph-name="Acaron" unicode="&#x1cd;" horiz-adv-x="356" 
d="M141 748c8 -6 14 -12 20 -19l1 -1c19 -24 41 -45 59 -69c5 -5 5 -5 9 0c8 9 13 19 19 29c8 10 27 36 35 46c5 3 6 5 9 8c3 4 6 6 10 5c4 0 8 -3 5 -7c-4 -7 -5 -15 -12 -19c-4 -4 -17 -23 -20 -26c-9 -11 -19 -22 -24 -34c-2 -5 -6 -10 -12 -14l-14 -14
c-6 -8 -16 -9 -24 -9c-6 0 -8 1 -10 4c-8 12 -17 22 -28 33c-9 10 -17 20 -25 30c-7 7 -14 15 -20 24c-2 4 -4 7 0 11c3 5 6 9 10 14l6 7c2 0 4 1 6 1zM173 576l20 2c11 1 21 -2 29 -11c11 -12 19 -25 22 -42c8 -50 13 -100 20 -150c6 -47 14 -93 19 -140
c5 -38 10 -77 10 -115c-1 -35 7 -67 12 -101c6 -32 -26 -19 -32 2c-6 18 -3 37 -4 56c-3 40 -11 80 -13 120c0 6 -2 10 -9 10c-24 0 -48 2 -72 -1c-18 -2 -21 -26 -26 -41c-9 -23 -11 -52 -15 -77c-5 -24 -13 -73 -24 -78c-1 0 -1 -1 0 -2c-2 -1 -4 -2 -6 -2
c-3 -1 -5 -3 -6 -5l-7 -1c-16 -1 -28 10 -39 20c-3 3 -2 7 -2 11c0 27 4 54 8 81c5 36 10 72 16 108c10 58 22 116 39 173c7 25 12 51 20 75c9 30 18 59 28 89c6 12 -2 1 10 19h2zM224 482c-7 -18 -7 -37 -9 -55c-4 -43 -18 -82 -27 -124c-4 -16 -6 -33 -13 -49
c-2 -5 -1 -11 -2 -17c0 -8 4 -11 11 -11c15 0 29 -2 44 -3c23 -2 28 5 25 28c-6 41 -10 82 -16 124c-5 35 -9 71 -13 107z" />
    <glyph glyph-name="Acircumflex" unicode="&#xc2;" horiz-adv-x="356" 
d="M222 735c6 0 8 -2 10 -5c7 -12 16 -23 26 -34c8 -10 16 -21 24 -32c6 -7 13 -15 18 -24c2 -4 3 -7 0 -11c-3 -5 -7 -9 -11 -14c-2 -2 -4 -5 -7 -7h-6c-7 6 -13 13 -18 20l-1 1c-18 25 -39 47 -56 72c-4 5 -4 5 -9 0c-8 -8 -14 -18 -21 -27c-7 -11 -28 -35 -37 -44
c-4 -3 -6 -6 -9 -9s-6 -5 -10 -4c-4 0 -8 4 -5 8c4 6 6 14 13 18c4 3 19 22 22 25c9 10 19 20 25 33c3 5 7 9 12 13s10 8 15 13c7 7 17 9 25 8zM173 576l20 2c11 1 21 -2 29 -11c11 -12 19 -25 22 -42c8 -50 13 -100 20 -150c6 -47 14 -93 19 -140c5 -38 10 -77 10 -115
c-1 -35 7 -67 12 -101c6 -32 -26 -19 -32 2c-6 18 -3 37 -4 56c-3 40 -11 80 -13 120c0 6 -2 10 -9 10c-24 0 -48 2 -72 -1c-18 -2 -21 -26 -26 -41c-9 -23 -11 -52 -15 -77c-5 -24 -13 -73 -24 -78c-1 0 -1 -1 0 -2c-2 -1 -4 -2 -6 -2c-3 -1 -5 -3 -6 -5l-7 -1
c-16 -1 -28 10 -39 20c-3 3 -2 7 -2 11c0 27 4 54 8 81c5 36 10 72 16 108c10 58 22 116 39 173c7 25 12 51 20 75c9 30 18 59 28 89c6 12 -2 1 10 19h2zM224 482c-7 -18 -7 -37 -9 -55c-4 -43 -18 -82 -27 -124c-4 -16 -6 -33 -13 -49c-2 -5 -1 -11 -2 -17
c0 -8 4 -11 11 -11c15 0 29 -2 44 -3c23 -2 28 5 25 28c-6 41 -10 82 -16 124c-5 35 -9 71 -13 107z" />
    <glyph glyph-name="Acircumflexacute" unicode="&#x1ea4;" horiz-adv-x="356" 
d="M282 861c4 -2 4 -9 -4 -26c-9 -19 -14 -35 -35 -56l-4 -3c-4 -2 -9 -5 -14 -6c-2 0 -4 0 -7 -1c-15 0 -17 17 -7 37c1 2 1 5 2 7c7 14 17 37 31 45c17 9 29 10 38 3zM215 727c6 0 8 -2 10 -5c7 -12 16 -23 26 -34c8 -10 16 -21 24 -32c6 -7 13 -15 18 -24
c2 -4 3 -7 0 -11c-3 -5 -7 -9 -11 -14c-2 -2 -4 -5 -7 -7h-6c-7 6 -13 13 -18 20l-1 1c-18 25 -39 47 -56 72c-4 5 -4 5 -9 0c-8 -8 -14 -18 -21 -27c-7 -11 -28 -35 -37 -44c-4 -3 -6 -6 -9 -9s-6 -5 -10 -4c-4 0 -8 4 -5 8c4 6 6 14 13 18c4 3 19 22 22 25
c9 10 19 20 25 33c3 5 7 9 12 13s10 8 15 13c7 7 17 9 25 8zM173 576l20 2c11 1 21 -2 29 -11c11 -12 19 -25 22 -42c8 -50 13 -100 20 -150c6 -47 14 -93 19 -140c5 -38 10 -77 10 -115c-1 -35 7 -67 12 -101c6 -32 -26 -19 -32 2c-6 18 -3 37 -4 56c-3 40 -11 80 -13 120
c0 6 -2 10 -9 10c-24 0 -48 2 -72 -1c-18 -2 -21 -26 -26 -41c-9 -23 -11 -52 -15 -77c-5 -24 -13 -73 -24 -78c-1 0 -1 -1 0 -2c-2 -1 -4 -2 -6 -2c-3 -1 -5 -3 -6 -5l-7 -1c-16 -1 -28 10 -39 20c-3 3 -2 7 -2 11c0 27 4 54 8 81c5 36 10 72 16 108c10 58 22 116 39 173
c7 25 12 51 20 75c9 30 18 59 28 89c6 12 -2 1 10 19h2zM224 482c-7 -18 -7 -37 -9 -55c-4 -43 -18 -82 -27 -124c-4 -16 -6 -33 -13 -49c-2 -5 -1 -11 -2 -17c0 -8 4 -11 11 -11c15 0 29 -2 44 -3c23 -2 28 5 25 28c-6 41 -10 82 -16 124c-5 35 -9 71 -13 107z" />
    <glyph glyph-name="Acircumflexgrave" unicode="&#x1ea6;" horiz-adv-x="356" 
d="M148 854c3 -2 8 -2 10 -5c8 -11 20 -14 29 -22c7 -6 15 -11 21 -20c3 -5 8 -6 11 -9c5 -3 9 -8 15 -11c5 -2 6 -8 11 -11c2 -2 1 -5 -1 -6c-3 -2 -4 -5 -3 -9c1 -3 -2 -7 -3 -8c-4 -3 -4 -8 -5 -13c-1 -8 -12 -10 -18 -5l-27 27c-4 4 -9 8 -10 11c-2 5 -6 3 -8 6
c-2 4 -5 6 -8 10c-7 12 -18 22 -24 35c-4 7 -7 13 -5 20c1 5 2 11 7 10c3 0 5 -4 8 0zM224 702c6 0 8 -2 10 -5c7 -12 16 -23 26 -34c8 -10 16 -21 24 -32c6 -7 13 -15 18 -24c2 -4 3 -7 0 -11c-3 -5 -7 -9 -11 -14c-2 -2 -4 -5 -7 -7h-6c-7 6 -13 13 -18 20l-1 1
c-18 25 -39 47 -56 72c-4 5 -4 5 -9 0c-8 -8 -14 -18 -21 -27c-7 -11 -28 -35 -37 -44c-4 -3 -6 -6 -9 -9s-6 -5 -10 -4c-4 0 -8 4 -5 8c4 6 6 14 13 18c4 3 19 22 22 25c9 10 19 20 25 33c3 5 7 9 12 13s10 8 15 13c7 7 17 9 25 8zM173 576l20 2c11 1 21 -2 29 -11
c11 -12 19 -25 22 -42c8 -50 13 -100 20 -150c6 -47 14 -93 19 -140c5 -38 10 -77 10 -115c-1 -35 7 -67 12 -101c6 -32 -26 -19 -32 2c-6 18 -3 37 -4 56c-3 40 -11 80 -13 120c0 6 -2 10 -9 10c-24 0 -48 2 -72 -1c-18 -2 -21 -26 -26 -41c-9 -23 -11 -52 -15 -77
c-5 -24 -13 -73 -24 -78c-1 0 -1 -1 0 -2c-2 -1 -4 -2 -6 -2c-3 -1 -5 -3 -6 -5l-7 -1c-16 -1 -28 10 -39 20c-3 3 -2 7 -2 11c0 27 4 54 8 81c5 36 10 72 16 108c10 58 22 116 39 173c7 25 12 51 20 75c9 30 18 59 28 89c6 12 -2 1 10 19h2zM224 482c-7 -18 -7 -37 -9 -55
c-4 -43 -18 -82 -27 -124c-4 -16 -6 -33 -13 -49c-2 -5 -1 -11 -2 -17c0 -8 4 -11 11 -11c15 0 29 -2 44 -3c23 -2 28 5 25 28c-6 41 -10 82 -16 124c-5 35 -9 71 -13 107z" />
    <glyph glyph-name="Acircumflextilde" unicode="&#x1eaa;" horiz-adv-x="356" 
d="M170 784c14 1 28 -5 41 -11c11 -7 19 -16 27 -25c8 -8 23 -9 33 -3c5 3 9 8 10 13c2 5 2 13 5 17c9 8 11 -9 11 -14c-1 -24 -20 -42 -42 -42c-4 1 -7 1 -10 2c-10 3 -17 10 -25 16c-5 3 -9 4 -13 6c-9 5 -18 7 -27 7c-16 1 -22 -9 -29 -23c-4 -8 -15 -18 -23 -12
c-8 5 -8 16 -6 25c4 13 10 21 17 31c9 8 20 12 31 13zM218 690c6 0 8 -2 10 -5c7 -12 16 -23 26 -34c8 -10 16 -21 24 -32c6 -7 13 -15 18 -24c2 -4 3 -7 0 -11c-3 -5 -7 -9 -11 -14c-2 -2 -4 -5 -7 -7h-6c-7 6 -13 13 -18 20l-1 1c-18 25 -39 47 -56 72c-4 5 -4 5 -9 0
c-8 -8 -14 -18 -21 -27c-7 -11 -28 -35 -37 -44c-4 -3 -6 -6 -9 -9s-6 -5 -10 -4c-4 0 -8 4 -5 8c4 6 6 14 13 18c4 3 19 22 22 25c9 10 19 20 25 33c3 5 7 9 12 13s10 8 15 13c7 7 17 9 25 8zM173 576l20 2c11 1 21 -2 29 -11c11 -12 19 -25 22 -42c8 -50 13 -100 20 -150
c6 -47 14 -93 19 -140c5 -38 10 -77 10 -115c-1 -35 7 -67 12 -101c6 -32 -26 -19 -32 2c-6 18 -3 37 -4 56c-3 40 -11 80 -13 120c0 6 -2 10 -9 10c-24 0 -48 2 -72 -1c-18 -2 -21 -26 -26 -41c-9 -23 -11 -52 -15 -77c-5 -24 -13 -73 -24 -78c-1 0 -1 -1 0 -2
c-2 -1 -4 -2 -6 -2c-3 -1 -5 -3 -6 -5l-7 -1c-16 -1 -28 10 -39 20c-3 3 -2 7 -2 11c0 27 4 54 8 81c5 36 10 72 16 108c10 58 22 116 39 173c7 25 12 51 20 75c9 30 18 59 28 89c6 12 -2 1 10 19h2zM224 482c-7 -18 -7 -37 -9 -55c-4 -43 -18 -82 -27 -124
c-4 -16 -6 -33 -13 -49c-2 -5 -1 -11 -2 -17c0 -8 4 -11 11 -11c15 0 29 -2 44 -3c23 -2 28 5 25 28c-6 41 -10 82 -16 124c-5 35 -9 71 -13 107z" />
    <glyph glyph-name="Adieresis" unicode="&#xc4;" horiz-adv-x="356" 
d="M135 682c10 10 25 6 26 -7c2 -9 8 -18 9 -28c0 -7 -4 -13 -4 -19c0 -2 0 -3 -2 -3c-5 2 -10 -6 -15 -2c-8 -1 -11 2 -15 7c-8 9 -13 17 -12 29c2 10 6 17 13 23zM225 682c9 10 24 6 26 -7c2 -9 8 -18 9 -28c1 -7 -4 -13 -3 -19c0 -2 -1 -3 -3 -3c-6 2 -10 -6 -15 -2
c-8 -1 -11 2 -15 7c-8 9 -12 17 -11 29c1 10 5 17 12 23zM173 576l20 2c11 1 21 -2 29 -11c11 -12 19 -25 22 -42c8 -50 13 -100 20 -150c6 -47 14 -93 19 -140c5 -38 10 -77 10 -115c-1 -35 7 -67 12 -101c6 -32 -26 -19 -32 2c-6 18 -3 37 -4 56c-3 40 -11 80 -13 120
c0 6 -2 10 -9 10c-24 0 -48 2 -72 -1c-18 -2 -21 -26 -26 -41c-9 -23 -11 -52 -15 -77c-5 -24 -13 -73 -24 -78c-1 0 -1 -1 0 -2c-2 -1 -4 -2 -6 -2c-3 -1 -5 -3 -6 -5l-7 -1c-16 -1 -28 10 -39 20c-3 3 -2 7 -2 11c0 27 4 54 8 81c5 36 10 72 16 108c10 58 22 116 39 173
c7 25 12 51 20 75c9 30 18 59 28 89c6 12 -2 1 10 19h2zM224 482c-7 -18 -7 -37 -9 -55c-4 -43 -18 -82 -27 -124c-4 -16 -6 -33 -13 -49c-2 -5 -1 -11 -2 -17c0 -8 4 -11 11 -11c15 0 29 -2 44 -3c23 -2 28 5 25 28c-6 41 -10 82 -16 124c-5 35 -9 71 -13 107z" />
    <glyph glyph-name="Agrave" unicode="&#xc0;" horiz-adv-x="356" 
d="M167 753c3 -2 8 -2 10 -5c8 -11 20 -14 29 -22c7 -6 15 -11 21 -20c3 -5 8 -6 11 -9c5 -3 9 -8 15 -11c5 -2 6 -8 11 -11c2 -2 1 -5 -1 -6c-3 -2 -4 -5 -3 -9c1 -3 -2 -7 -3 -8c-4 -3 -4 -8 -5 -13c-1 -8 -12 -10 -18 -5l-27 27c-4 4 -9 8 -10 11c-2 5 -6 3 -8 6
c-2 4 -5 6 -8 10c-7 12 -18 22 -24 35c-4 7 -7 13 -5 20c1 5 2 11 7 10c3 0 5 -4 8 0zM173 576l20 2c11 1 21 -2 29 -11c11 -12 19 -25 22 -42c8 -50 13 -100 20 -150c6 -47 14 -93 19 -140c5 -38 10 -77 10 -115c-1 -35 7 -67 12 -101c6 -32 -26 -19 -32 2
c-6 18 -3 37 -4 56c-3 40 -11 80 -13 120c0 6 -2 10 -9 10c-24 0 -48 2 -72 -1c-18 -2 -21 -26 -26 -41c-9 -23 -11 -52 -15 -77c-5 -24 -13 -73 -24 -78c-1 0 -1 -1 0 -2c-2 -1 -4 -2 -6 -2c-3 -1 -5 -3 -6 -5l-7 -1c-16 -1 -28 10 -39 20c-3 3 -2 7 -2 11c0 27 4 54 8 81
c5 36 10 72 16 108c10 58 22 116 39 173c7 25 12 51 20 75c9 30 18 59 28 89c6 12 -2 1 10 19h2zM224 482c-7 -18 -7 -37 -9 -55c-4 -43 -18 -82 -27 -124c-4 -16 -6 -33 -13 -49c-2 -5 -1 -11 -2 -17c0 -8 4 -11 11 -11c15 0 29 -2 44 -3c23 -2 28 5 25 28
c-6 41 -10 82 -16 124c-5 35 -9 71 -13 107z" />
    <glyph glyph-name="Amacron" unicode="&#x100;" horiz-adv-x="356" 
d="M264 672c8 -3 9 -13 18 -16c7 -14 -1 -15 -11 -21c-10 -1 -17 3 -26 3c-15 1 -30 -3 -45 -4c-87 -3 -121 -16 -116 16c2 13 89 -2 106 7c13 5 33 7 48 12c9 2 17 7 26 3zM173 576l20 2c11 1 21 -2 29 -11c11 -12 19 -25 22 -42c8 -50 13 -100 20 -150
c6 -47 14 -93 19 -140c5 -38 10 -77 10 -115c-1 -35 7 -67 12 -101c6 -32 -26 -19 -32 2c-6 18 -3 37 -4 56c-3 40 -11 80 -13 120c0 6 -2 10 -9 10c-24 0 -48 2 -72 -1c-18 -2 -21 -26 -26 -41c-9 -23 -11 -52 -15 -77c-5 -24 -13 -73 -24 -78c-1 0 -1 -1 0 -2
c-2 -1 -4 -2 -6 -2c-3 -1 -5 -3 -6 -5l-7 -1c-16 -1 -28 10 -39 20c-3 3 -2 7 -2 11c0 27 4 54 8 81c5 36 10 72 16 108c10 58 22 116 39 173c7 25 12 51 20 75c9 30 18 59 28 89c6 12 -2 1 10 19h2zM224 482c-7 -18 -7 -37 -9 -55c-4 -43 -18 -82 -27 -124
c-4 -16 -6 -33 -13 -49c-2 -5 -1 -11 -2 -17c0 -8 4 -11 11 -11c15 0 29 -2 44 -3c23 -2 28 5 25 28c-6 41 -10 82 -16 124c-5 35 -9 71 -13 107z" />
    <glyph glyph-name="Aogonek" unicode="&#x104;" horiz-adv-x="356" 
d="M351 -61c5 -8 3 -14 -6 -21c-22 -12 -44 -18 -66 -10c-8 3 -12 10 -17 17c-1 1 -2 2 -3 5c-7 6 -9 16 -9 24c1 14 2 24 10 36c5 8 11 15 19 20c-3 3 -5 7 -6 11c-6 18 -3 37 -4 56c-3 40 -11 80 -13 120c0 6 -2 10 -9 10c-24 0 -48 2 -72 -1c-18 -2 -21 -26 -26 -41
c-9 -23 -11 -52 -15 -77c-5 -24 -13 -73 -24 -78c-1 0 -1 -1 0 -2c-2 -1 -4 -2 -6 -2c-3 -1 -5 -3 -6 -5l-7 -1c-16 -1 -28 10 -39 20c-3 3 -2 7 -2 11c0 27 4 54 8 81c5 36 10 72 16 108c10 58 22 116 39 173c7 25 12 51 20 75c9 30 18 59 28 89c6 12 -2 1 10 19h2l20 2
c11 1 21 -2 29 -11c11 -12 19 -25 22 -42c8 -50 13 -100 20 -150c6 -47 14 -93 19 -140c5 -38 10 -77 10 -115c-1 -35 7 -67 12 -101c3 -17 -4 -21 -13 -19l-2 -2l-5 -9c-4 -9 -5 -19 -3 -27c1 -8 3 -14 12 -14c8 -1 15 -6 22 0c6 4 8 9 16 9c6 1 13 -3 15 -9
c1 -3 3 -6 4 -9zM228 223c23 -2 28 5 25 28c-6 41 -10 82 -16 124c-5 35 -9 71 -13 107c-7 -18 -7 -37 -9 -55c-4 -43 -18 -82 -27 -124c-4 -16 -6 -33 -13 -49c-2 -5 -1 -11 -2 -17c0 -8 4 -11 11 -11c15 0 29 -2 44 -3z" />
    <glyph glyph-name="Aring" unicode="&#xc5;" horiz-adv-x="356" 
d="M305 19c6 -32 -26 -19 -32 2c-6 18 -3 37 -4 56c-3 40 -11 80 -13 120c0 6 -2 10 -9 10c-24 0 -48 2 -72 -1c-18 -2 -21 -26 -26 -41c-9 -23 -11 -52 -15 -77c-5 -24 -13 -73 -24 -78c-1 0 -1 -1 0 -2c-2 -1 -4 -2 -6 -2c-3 -1 -5 -3 -6 -5l-7 -1c-16 -1 -28 10 -39 20
c-3 3 -2 7 -2 11c0 27 4 54 8 81c5 36 10 72 16 108c10 58 22 116 39 173c7 25 12 51 20 75c9 30 18 59 28 89c6 12 -2 1 10 19h2h5c-11 7 -20 18 -27 33c-2 6 -6 12 -9 18c-6 10 -8 23 -7 36c1 23 6 43 21 56c6 5 12 9 19 12c8 4 17 -1 24 -6c17 -12 31 -27 37 -54
c3 -16 1 -33 -2 -50c-2 -13 -6 -22 -12 -30c-4 -6 -8 -11 -13 -15c5 -2 9 -5 13 -9c11 -12 19 -25 22 -42c8 -50 13 -100 20 -150c6 -47 14 -93 19 -140c5 -38 10 -77 10 -115c-1 -35 7 -67 12 -101zM166 624c4 -16 18 -30 28 -30c7 -1 13 3 17 9c6 9 10 19 14 29
c6 17 3 43 -6 56c-2 3 -5 4 -7 8c-3 6 -9 5 -14 1c-3 -4 -5 -11 -8 -12c-6 -2 -10 -8 -14 -12c-7 -8 -13 -38 -10 -49zM228 223c23 -2 28 5 25 28c-6 41 -10 82 -16 124c-5 35 -9 71 -13 107c-7 -18 -7 -37 -9 -55c-4 -43 -18 -82 -27 -124c-4 -16 -6 -33 -13 -49
c-2 -5 -1 -11 -2 -17c0 -8 4 -11 11 -11c15 0 29 -2 44 -3z" />
    <glyph glyph-name="Atilde" unicode="&#xc3;" horiz-adv-x="356" 
d="M167 659c14 1 28 -5 41 -11c11 -7 19 -16 27 -25c8 -8 23 -9 33 -3c5 3 9 8 10 13c2 5 2 13 5 17c9 8 11 -9 11 -14c-1 -24 -20 -42 -42 -42c-4 1 -7 1 -10 2c-10 3 -17 10 -25 16c-5 3 -9 4 -13 6c-9 5 -18 7 -27 7c-16 1 -22 -9 -29 -23c-4 -8 -15 -18 -23 -12
c-8 5 -8 16 -6 25c4 13 10 21 17 31c9 8 20 12 31 13zM173 576l20 2c11 1 21 -2 29 -11c11 -12 19 -25 22 -42c8 -50 13 -100 20 -150c6 -47 14 -93 19 -140c5 -38 10 -77 10 -115c-1 -35 7 -67 12 -101c6 -32 -26 -19 -32 2c-6 18 -3 37 -4 56c-3 40 -11 80 -13 120
c0 6 -2 10 -9 10c-24 0 -48 2 -72 -1c-18 -2 -21 -26 -26 -41c-9 -23 -11 -52 -15 -77c-5 -24 -13 -73 -24 -78c-1 0 -1 -1 0 -2c-2 -1 -4 -2 -6 -2c-3 -1 -5 -3 -6 -5l-7 -1c-16 -1 -28 10 -39 20c-3 3 -2 7 -2 11c0 27 4 54 8 81c5 36 10 72 16 108c10 58 22 116 39 173
c7 25 12 51 20 75c9 30 18 59 28 89c6 12 -2 1 10 19h2zM224 482c-7 -18 -7 -37 -9 -55c-4 -43 -18 -82 -27 -124c-4 -16 -6 -33 -13 -49c-2 -5 -1 -11 -2 -17c0 -8 4 -11 11 -11c15 0 29 -2 44 -3c23 -2 28 5 25 28c-6 41 -10 82 -16 124c-5 35 -9 71 -13 107z" />
    <glyph glyph-name="AE" unicode="&#xc6;" horiz-adv-x="464" 
d="M375 575c9 1 35 -13 38 -21c3 -7 1 -12 -7 -13c-5 -1 -11 -2 -16 -1c-28 2 -56 5 -84 7c-3 1 -6 1 -8 1c-23 2 -23 2 -20 -20c4 -31 6 -63 5 -94c-1 -17 4 -33 8 -49v-46c1 -23 3 -75 1 -99v-7c0 -7 3 -11 11 -11h27c4 0 8 0 12 -1c5 0 8 -3 8 -8c1 -4 -2 -8 -7 -9
c-10 -2 -20 -5 -31 -3c-4 2 -8 2 -12 2c-7 0 -10 -2 -11 -9l4 -77c-1 -30 5 -59 10 -88h23c13 0 26 -1 39 0c11 1 20 -3 28 -9c4 -3 10 -6 7 -12c-3 -5 -5 -10 -13 -11c-18 -1 -36 -3 -55 0c-9 1 -20 3 -29 2c-7 -8 -26 3 -30 19c-6 18 -3 37 -4 56c-3 40 -11 79 -13 120
c0 6 -2 10 -9 10c-24 0 -48 1 -72 -1c-18 -3 -21 -26 -26 -41c-9 -23 -11 -52 -15 -77c-4 -19 -7 -37 -15 -55c-3 -7 2 -18 -9 -23c-1 0 -1 -1 0 -2l-6 -3c-3 0 -5 -2 -6 -4l-7 -1c-16 -1 -28 10 -39 20c-3 3 -2 7 -2 11c0 27 4 54 8 81c5 36 10 72 16 108
c10 58 22 116 39 173c7 25 12 50 20 75c9 30 18 59 28 89c8 22 43 6 66 11c32 7 66 12 101 8c16 -2 32 -1 47 2zM224 478c-7 -17 -7 -36 -9 -54c-5 -43 -18 -82 -27 -124c-4 -17 -6 -33 -13 -49c-3 -6 -1 -12 -2 -18c0 -7 4 -11 11 -10c15 0 29 -2 44 -3c22 -2 28 5 25 27
c-6 42 -10 83 -16 125c-5 35 -9 71 -13 106z" />
    <glyph glyph-name="B" unicode="B" horiz-adv-x="438" 
d="M58 568l6 8c19 2 39 3 52 -4c15 -40 10 -31 10 -74c0 -9 0 -18 5 -31c21 52 44 87 94 99c5 0 10 1 14 1h16l15 -7c18 -9 36 -21 38 -43c1 -20 1 -42 -8 -61l-6 -19c-11 -27 -27 -50 -45 -72c-2 -2 -4 -4 -5 -7c4 -4 7 -1 10 1c20 7 40 15 62 14c18 0 36 -3 51 -16
c15 -14 16 -20 19 -41c2 -11 2 -21 2 -32c-7 -37 -11 -69 -31 -103c-18 -30 -42 -56 -64 -83c-19 -23 -46 -34 -72 -46c-2 -2 -5 -3 -7 -5c-15 -11 -27 -11 -40 2c-9 9 -16 19 -18 32c-2 12 0 18 11 24c8 5 17 9 25 13c47 26 80 67 108 112c14 23 21 49 25 76
c3 19 1 32 -10 32c-5 0 -11 1 -16 0c-17 -4 -34 -10 -49 -20c-23 -15 -48 -23 -73 -34l-4 -1c-7 -1 -38 24 -39 31c-1 5 1 10 4 14c12 16 25 33 36 50c25 36 50 72 67 113c4 9 7 18 9 28c3 12 -2 16 -14 12c-14 -5 -24 -14 -34 -24c-29 -29 -49 -63 -69 -98l-6 -20
c-1 -41 -2 -83 0 -124c1 -16 1 -32 0 -48c-1 -17 -2 -34 0 -51c3 -27 0 -54 1 -81c1 -16 1 -33 2 -49c0 -5 0 -11 -1 -16c0 -1 -1 -4 -2 -4c-11 0 -15 -11 -22 -17c-5 -4 -12 -6 -18 -3c-4 2 -8 3 -12 3l-15 10c-7 25 -3 50 -4 75c-2 27 -2 54 -5 81l-1 34
c0 55 -1 111 0 166c1 54 2 108 8 161l1 29z" />
    <glyph glyph-name="C" unicode="C" horiz-adv-x="336" 
d="M242 586c14 -3 27 -10 42 -9l11 -3c6 -12 22 -16 29 -28c5 -9 9 -17 10 -28c2 -17 -1 -35 2 -53c0 -6 0 -14 -9 -16c-6 -1 -11 7 -9 17c3 12 3 24 3 36c0 18 -10 32 -26 43c-9 6 -14 6 -22 -1c-18 -15 -35 -30 -46 -50c-17 -28 -32 -58 -47 -87c-5 -9 -8 -19 -12 -28
c-11 -30 -28 -59 -33 -90c-4 -30 -11 -61 -8 -92c-4 -32 2 -64 11 -95c4 -17 11 -33 20 -49c8 -13 22 -22 37 -29s32 -3 43 10c16 19 32 38 35 63c0 4 1 7 2 10c2 3 2 9 8 7c4 0 6 -6 5 -9c-1 -10 -3 -19 -6 -29c-5 -19 -8 -39 -22 -54c-27 -20 -12 -10 -39 -21
c-15 1 -30 1 -45 4c-52 10 -76 45 -97 83c-20 37 -26 76 -28 117c-5 74 10 145 39 214c15 36 35 70 58 103c14 20 31 38 51 53c12 9 26 14 43 11z" />
    <glyph glyph-name="Cacute" unicode="&#x106;" horiz-adv-x="336" 
d="M302 693c4 -2 4 -9 -4 -26c-9 -19 -14 -35 -35 -56l-4 -3c-4 -2 -9 -5 -14 -6c-2 0 -4 0 -7 -1c-15 0 -17 17 -7 37c1 2 1 5 2 7c7 14 17 37 31 45c17 9 29 10 38 3zM242 586c14 -3 27 -10 42 -9l11 -3c6 -12 22 -16 29 -28c5 -9 9 -17 10 -28c2 -17 -1 -35 2 -53
c0 -6 0 -14 -9 -16c-6 -1 -11 7 -9 17c3 12 3 24 3 36c0 18 -10 32 -26 43c-9 6 -14 6 -22 -1c-18 -15 -35 -30 -46 -50c-17 -28 -32 -58 -47 -87c-5 -9 -8 -19 -12 -28c-11 -30 -28 -59 -33 -90c-4 -30 -11 -61 -8 -92c-4 -32 2 -64 11 -95c4 -17 11 -33 20 -49
c8 -13 22 -22 37 -29s32 -3 43 10c16 19 32 38 35 63c0 4 1 7 2 10c2 3 2 9 8 7c4 0 6 -6 5 -9c-1 -10 -3 -19 -6 -29c-5 -19 -8 -39 -22 -54c-27 -20 -12 -10 -39 -21c-15 1 -30 1 -45 4c-52 10 -76 45 -97 83c-20 37 -26 76 -28 117c-5 74 10 145 39 214
c15 36 35 70 58 103c14 20 31 38 51 53c12 9 26 14 43 11z" />
    <glyph glyph-name="Ccaron" unicode="&#x10c;" horiz-adv-x="336" 
d="M155 742c8 -6 14 -12 20 -19l1 -1c19 -24 41 -45 59 -69c5 -5 5 -5 9 0c8 9 13 19 19 29c8 10 27 36 35 46c5 3 6 5 9 8c3 4 6 6 10 5c4 0 8 -3 5 -7c-4 -7 -5 -15 -12 -19c-4 -4 -17 -23 -20 -26c-9 -11 -19 -22 -24 -34c-2 -5 -6 -10 -12 -14l-14 -14
c-6 -8 -16 -9 -24 -9c-6 0 -8 1 -10 4c-8 12 -17 22 -28 33c-9 10 -17 20 -25 30c-7 7 -14 15 -20 24c-2 4 -4 7 0 11c3 5 6 9 10 14l6 7c2 0 4 1 6 1zM242 586c14 -3 27 -10 42 -9l11 -3c6 -12 22 -16 29 -28c5 -9 9 -17 10 -28c2 -17 -1 -35 2 -53c0 -6 0 -14 -9 -16
c-6 -1 -11 7 -9 17c3 12 3 24 3 36c0 18 -10 32 -26 43c-9 6 -14 6 -22 -1c-18 -15 -35 -30 -46 -50c-17 -28 -32 -58 -47 -87c-5 -9 -8 -19 -12 -28c-11 -30 -28 -59 -33 -90c-4 -30 -11 -61 -8 -92c-4 -32 2 -64 11 -95c4 -17 11 -33 20 -49c8 -13 22 -22 37 -29
s32 -3 43 10c16 19 32 38 35 63c0 4 1 7 2 10c2 3 2 9 8 7c4 0 6 -6 5 -9c-1 -10 -3 -19 -6 -29c-5 -19 -8 -39 -22 -54c-27 -20 -12 -10 -39 -21c-15 1 -30 1 -45 4c-52 10 -76 45 -97 83c-20 37 -26 76 -28 117c-5 74 10 145 39 214c15 36 35 70 58 103c14 20 31 38 51 53
c12 9 26 14 43 11z" />
    <glyph glyph-name="Ccedilla" unicode="&#xc7;" horiz-adv-x="336" 
d="M334 518c2 -17 -1 -35 2 -53c0 -6 0 -14 -9 -16c-6 -1 -11 7 -9 17c3 12 3 24 3 36c0 18 -10 32 -26 43c-9 6 -14 6 -22 -1c-18 -15 -35 -30 -46 -50c-17 -28 -32 -58 -47 -87c-5 -9 -8 -19 -12 -28c-11 -30 -28 -59 -33 -90c-4 -30 -11 -61 -8 -92c-4 -32 2 -64 11 -95
c4 -17 11 -33 20 -49c8 -13 22 -22 37 -29s32 -3 43 10c16 19 32 38 35 63c0 4 1 7 2 10c2 3 2 9 8 7c4 0 6 -6 5 -9c-1 -10 -3 -19 -6 -29c-5 -19 -8 -39 -22 -54c-27 -20 -12 -10 -39 -21c-15 1 -30 1 -45 4l-12 3c5 -5 8 -11 8 -20c-1 -14 -3 -30 -5 -46c0 -3 0 -6 -1 -8
c0 -3 -2 -6 1 -6c2 -1 5 1 7 2c18 10 38 12 60 5c13 -4 26 -9 32 -22c6 -12 -1 -34 -14 -42c-4 -4 -6 -9 -8 -13c-1 -4 -4 -8 -5 -14c0 -2 -3 -5 -6 -8c-11 -12 -27 -17 -43 -21c-4 -1 -8 0 -11 0c-8 2 -16 3 -24 5c-8 3 -13 10 -15 16c-3 7 -6 13 -5 20c1 2 1 4 4 5
s4 -1 5 -2c6 -4 8 -9 9 -15c0 -2 1 -4 1 -5c6 -10 16 -11 25 -4c10 9 18 18 26 28c10 12 12 25 9 39c-2 5 -6 8 -14 8c-14 0 -26 -4 -36 -14c-4 -3 -10 -4 -13 -8c0 -2 -4 -2 -5 -1c-5 4 -12 6 -14 12c0 1 0 2 -1 3c-15 15 -9 33 -7 50c2 19 8 38 13 58c1 3 2 5 7 5h2
c-32 15 -51 43 -67 73c-20 37 -26 76 -28 117c-5 74 10 145 39 214c15 36 35 70 58 103c14 20 31 38 51 53c12 9 26 14 43 11c14 -3 27 -10 42 -9l11 -3c6 -12 22 -16 29 -28c5 -9 9 -17 10 -28z" />
    <glyph glyph-name="Cdotaccent" unicode="&#x10a;" horiz-adv-x="336" 
d="M245 730c9 9 23 5 25 -8c1 -9 8 -17 9 -27c0 -7 -3 -13 -3 -20c0 -1 -2 -2 -3 -1c-5 1 -10 -6 -14 -2c-8 -2 -11 2 -15 7c-8 8 -13 17 -11 28c1 9 5 17 12 23zM242 586c14 -3 27 -10 42 -9l11 -3c6 -12 22 -16 29 -28c5 -9 9 -17 10 -28c2 -17 -1 -35 2 -53
c0 -6 0 -14 -9 -16c-6 -1 -11 7 -9 17c3 12 3 24 3 36c0 18 -10 32 -26 43c-9 6 -14 6 -22 -1c-18 -15 -35 -30 -46 -50c-17 -28 -32 -58 -47 -87c-5 -9 -8 -19 -12 -28c-11 -30 -28 -59 -33 -90c-4 -30 -11 -61 -8 -92c-4 -32 2 -64 11 -95c4 -17 11 -33 20 -49
c8 -13 22 -22 37 -29s32 -3 43 10c16 19 32 38 35 63c0 4 1 7 2 10c2 3 2 9 8 7c4 0 6 -6 5 -9c-1 -10 -3 -19 -6 -29c-5 -19 -8 -39 -22 -54c-27 -20 -12 -10 -39 -21c-15 1 -30 1 -45 4c-52 10 -76 45 -97 83c-20 37 -26 76 -28 117c-5 74 10 145 39 214
c15 36 35 70 58 103c14 20 31 38 51 53c12 9 26 14 43 11z" />
    <glyph glyph-name="D" unicode="D" horiz-adv-x="367" 
d="M119 574l6 -12c0 -11 0 -13 3 -21c28 16 59 22 91 22c23 -1 45 -6 63 -22c16 -14 23 -33 31 -51c8 -20 12 -42 13 -63l3 -21c0 -12 16 -21 18 -41c0 -9 -1 -17 -4 -24c-8 -20 -4 -42 -12 -62c-16 -38 -35 -68 -61 -100c-25 -29 -50 -58 -75 -88c-18 -21 -40 -35 -59 -55
l-7 -7c-7 -4 -20 -9 -27 -9h-10c3 -22 -4 -21 -16 -25c-1 0 -2 1 -3 1c-3 5 -7 10 -11 14c-11 18 -11 39 -11 60c-2 30 2 59 0 89v11c4 24 2 47 1 70c-2 17 -1 34 1 50c3 25 2 50 5 75c7 58 10 116 21 174l2 8v13l9 18c1 1 2 1 3 1l6 1zM222 515c-22 2 -41 -7 -62 -11
l-24 -10c0 -27 2 -40 5 -72c4 -51 3 -103 1 -154c-1 -11 -2 -22 -4 -34c-5 -44 -10 -88 -17 -132c18 16 22 26 31 45c20 37 39 74 56 112c10 25 20 51 31 76c14 33 21 68 24 100l-1 26l-3 23c-5 22 -14 29 -37 31z" />
    <glyph glyph-name="Eth" unicode="&#xd0;" horiz-adv-x="367" 
d="M326 427l3 -21c0 -12 16 -21 18 -41c0 -9 -1 -17 -4 -24c-8 -20 -4 -42 -12 -62c-16 -38 -35 -68 -61 -100c-25 -29 -50 -58 -75 -88c-18 -21 -40 -35 -59 -55l-7 -7c-7 -4 -20 -9 -27 -9h-10c3 -22 -4 -21 -16 -25c-1 0 -2 1 -3 1c-3 5 -7 10 -11 14
c-11 18 -11 39 -11 60c-2 30 2 59 0 89v11c4 24 2 47 1 70c-1 12 -1 24 0 36c-45 -4 -62 -5 -59 19c1 8 33 6 61 4c2 22 2 44 4 66c7 58 10 116 21 174l2 8v13l9 18c1 1 2 1 3 1l6 1l20 -6l6 -12c0 -11 0 -13 3 -21c28 16 59 22 91 22c23 -1 45 -6 63 -22
c16 -14 23 -33 31 -51c8 -20 12 -42 13 -63zM239 335c14 33 21 68 24 100l-1 26l-3 23c-5 22 -14 29 -37 31c-22 2 -41 -7 -62 -11l-24 -10c0 -27 2 -40 5 -72c3 -36 3 -73 2 -109l4 1c9 2 17 7 26 3c8 -3 9 -13 18 -16c7 -14 -1 -15 -11 -21c-10 -1 -17 3 -26 3h-11
c-1 -5 -1 -10 -1 -15c-1 -11 -2 -22 -4 -34c-5 -44 -10 -88 -17 -132c18 16 22 26 31 45c20 37 39 74 56 112c10 25 20 51 31 76z" />
    <glyph glyph-name="Dcaron" unicode="&#x10e;" horiz-adv-x="367" 
d="M141 704c8 -6 14 -12 20 -19l1 -1c19 -24 41 -45 59 -69c5 -5 5 -5 9 0c8 9 13 19 19 29c8 10 27 36 35 46c5 3 6 5 9 8c3 4 6 6 10 5c4 0 8 -3 5 -7c-4 -7 -5 -15 -12 -19c-4 -4 -17 -23 -20 -26c-9 -11 -19 -22 -24 -34c-2 -5 -6 -10 -12 -14l-14 -14
c-6 -8 -16 -9 -24 -9c-6 0 -8 1 -10 4c-8 12 -17 22 -28 33c-9 10 -17 20 -25 30c-7 7 -14 15 -20 24c-2 4 -4 7 0 11c3 5 6 9 10 14l6 7c2 0 4 1 6 1zM119 574l6 -12c0 -11 0 -13 3 -21c28 16 59 22 91 22c23 -1 45 -6 63 -22c16 -14 23 -33 31 -51c8 -20 12 -42 13 -63
l3 -21c0 -12 16 -21 18 -41c0 -9 -1 -17 -4 -24c-8 -20 -4 -42 -12 -62c-16 -38 -35 -68 -61 -100c-25 -29 -50 -58 -75 -88c-18 -21 -40 -35 -59 -55l-7 -7c-7 -4 -20 -9 -27 -9h-10c3 -22 -4 -21 -16 -25c-1 0 -2 1 -3 1c-3 5 -7 10 -11 14c-11 18 -11 39 -11 60
c-2 30 2 59 0 89v11c4 24 2 47 1 70c-2 17 -1 34 1 50c3 25 2 50 5 75c7 58 10 116 21 174l2 8v13l9 18c1 1 2 1 3 1l6 1zM222 515c-22 2 -41 -7 -62 -11l-24 -10c0 -27 2 -40 5 -72c4 -51 3 -103 1 -154c-1 -11 -2 -22 -4 -34c-5 -44 -10 -88 -17 -132c18 16 22 26 31 45
c20 37 39 74 56 112c10 25 20 51 31 76c14 33 21 68 24 100l-1 26l-3 23c-5 22 -14 29 -37 31z" />
    <glyph glyph-name="Dcroat" unicode="&#x110;" horiz-adv-x="367" 
d="M326 427l3 -21c0 -12 16 -21 18 -41c0 -9 -1 -17 -4 -24c-8 -20 -4 -42 -12 -62c-16 -38 -35 -68 -61 -100c-25 -29 -50 -58 -75 -88c-18 -21 -40 -35 -59 -55l-7 -7c-7 -4 -20 -9 -27 -9h-10c3 -22 -4 -21 -16 -25c-1 0 -2 1 -3 1c-3 5 -7 10 -11 14
c-11 18 -11 39 -11 60c-2 30 2 59 0 89v11c4 24 2 47 1 70c-1 12 -1 24 0 36c-45 -4 -62 -5 -59 19c1 8 33 6 61 4c2 22 2 44 4 66c7 58 10 116 21 174l2 8v13l9 18c1 1 2 1 3 1l6 1l20 -6l6 -12c0 -11 0 -13 3 -21c28 16 59 22 91 22c23 -1 45 -6 63 -22
c16 -14 23 -33 31 -51c8 -20 12 -42 13 -63zM239 335c14 33 21 68 24 100l-1 26l-3 23c-5 22 -14 29 -37 31c-22 2 -41 -7 -62 -11l-24 -10c0 -27 2 -40 5 -72c3 -36 3 -73 2 -109l4 1c9 2 17 7 26 3c8 -3 9 -13 18 -16c7 -14 -1 -15 -11 -21c-10 -1 -17 3 -26 3h-11
c-1 -5 -1 -10 -1 -15c-1 -11 -2 -22 -4 -34c-5 -44 -10 -88 -17 -132c18 16 22 26 31 45c20 37 39 74 56 112c10 25 20 51 31 76z" />
    <glyph glyph-name="E" unicode="E" horiz-adv-x="346" 
d="M105 582c35 -6 71 1 106 -3c15 -2 31 -1 47 2c9 1 34 -13 37 -21s1 -12 -7 -13l-16 -1c-28 2 -89 8 -92 8c-23 2 -22 2 -19 -20c4 -31 5 -63 4 -94c-1 -18 4 -33 9 -49c0 -15 -1 -31 0 -46c0 -23 3 -46 1 -70v-7c-1 -7 2 -11 10 -11c9 0 35 0 39 -1c5 0 9 -3 9 -8
s-3 -8 -8 -9l-43 -1c-6 0 -9 -2 -11 -9c-5 -27 -8 -55 -10 -82l-6 -60c-1 -12 -5 -24 -4 -38c0 -12 1 -14 13 -14h44s26 -1 39 0c11 0 20 -3 29 -9c4 -3 9 -6 6 -12c-3 -5 -5 -10 -13 -11c-18 -1 -36 -3 -55 0c-14 2 -30 4 -43 -1c-21 -7 -40 -8 -61 -2c-2 1 -5 0 -8 0
c-26 -6 -48 8 -51 35c-1 10 -2 20 -1 30c3 27 2 54 5 80c3 32 10 63 12 95l2 28c-1 19 0 39 5 58c3 12 -1 26 1 39c5 47 9 95 13 142c2 13 4 26 4 39l-1 18c-3 12 2 20 14 18z" />
    <glyph glyph-name="Eacute" unicode="&#xc9;" horiz-adv-x="346" 
d="M226 714c4 -2 4 -9 -4 -26c-9 -19 -14 -35 -35 -56l-4 -3c-4 -2 -9 -5 -14 -6c-2 0 -4 0 -7 -1c-15 0 -17 17 -7 37c1 2 1 5 2 7c7 14 17 37 31 45c17 9 29 10 38 3zM105 582c35 -6 71 1 106 -3c15 -2 31 -1 47 2c9 1 34 -13 37 -21s1 -12 -7 -13l-16 -1
c-28 2 -89 8 -92 8c-23 2 -22 2 -19 -20c4 -31 5 -63 4 -94c-1 -18 4 -33 9 -49c0 -15 -1 -31 0 -46c0 -23 3 -46 1 -70v-7c-1 -7 2 -11 10 -11c9 0 35 0 39 -1c5 0 9 -3 9 -8s-3 -8 -8 -9l-43 -1c-6 0 -9 -2 -11 -9c-5 -27 -8 -55 -10 -82l-6 -60c-1 -12 -5 -24 -4 -38
c0 -12 1 -14 13 -14h44s26 -1 39 0c11 0 20 -3 29 -9c4 -3 9 -6 6 -12c-3 -5 -5 -10 -13 -11c-18 -1 -36 -3 -55 0c-14 2 -30 4 -43 -1c-21 -7 -40 -8 -61 -2c-2 1 -5 0 -8 0c-26 -6 -48 8 -51 35c-1 10 -2 20 -1 30c3 27 2 54 5 80c3 32 10 63 12 95l2 28c-1 19 0 39 5 58
c3 12 -1 26 1 39c5 47 9 95 13 142c2 13 4 26 4 39l-1 18c-3 12 2 20 14 18z" />
    <glyph glyph-name="Ecaron" unicode="&#x11a;" horiz-adv-x="346" 
d="M100 733c8 -6 14 -12 20 -19l1 -1c19 -24 41 -45 59 -69c5 -5 5 -5 9 0c8 9 13 19 19 29c8 10 27 36 35 46c5 3 6 5 9 8c3 4 6 6 10 5c4 0 8 -3 5 -7c-4 -7 -5 -15 -12 -19c-4 -4 -17 -23 -20 -26c-9 -11 -19 -22 -24 -34c-2 -5 -6 -10 -12 -14l-14 -14
c-6 -8 -16 -9 -24 -9c-6 0 -8 1 -10 4c-8 12 -17 22 -28 33c-9 10 -17 20 -25 30c-7 7 -14 15 -20 24c-2 4 -4 7 0 11c3 5 6 9 10 14l6 7c2 0 4 1 6 1zM105 582c35 -6 71 1 106 -3c15 -2 31 -1 47 2c9 1 34 -13 37 -21s1 -12 -7 -13l-16 -1c-28 2 -89 8 -92 8
c-23 2 -22 2 -19 -20c4 -31 5 -63 4 -94c-1 -18 4 -33 9 -49c0 -15 -1 -31 0 -46c0 -23 3 -46 1 -70v-7c-1 -7 2 -11 10 -11c9 0 35 0 39 -1c5 0 9 -3 9 -8s-3 -8 -8 -9l-43 -1c-6 0 -9 -2 -11 -9c-5 -27 -8 -55 -10 -82l-6 -60c-1 -12 -5 -24 -4 -38c0 -12 1 -14 13 -14h44
s26 -1 39 0c11 0 20 -3 29 -9c4 -3 9 -6 6 -12c-3 -5 -5 -10 -13 -11c-18 -1 -36 -3 -55 0c-14 2 -30 4 -43 -1c-21 -7 -40 -8 -61 -2c-2 1 -5 0 -8 0c-26 -6 -48 8 -51 35c-1 10 -2 20 -1 30c3 27 2 54 5 80c3 32 10 63 12 95l2 28c-1 19 0 39 5 58c3 12 -1 26 1 39
c5 47 9 95 13 142c2 13 4 26 4 39l-1 18c-3 12 2 20 14 18z" />
    <glyph glyph-name="Ecircumflex" unicode="&#xca;" horiz-adv-x="346" 
d="M192 755c6 0 8 -2 10 -5c7 -12 16 -23 26 -34c8 -10 16 -21 24 -32c6 -7 13 -15 18 -24c2 -4 3 -7 0 -11c-3 -5 -7 -9 -11 -14c-2 -2 -4 -5 -7 -7h-6c-7 6 -13 13 -18 20l-1 1c-18 25 -39 47 -56 72c-4 5 -4 5 -9 0c-8 -8 -14 -18 -21 -27c-7 -11 -28 -35 -37 -44
c-4 -3 -6 -6 -9 -9s-6 -5 -10 -4c-4 0 -8 4 -5 8c4 6 6 14 13 18c4 3 19 22 22 25c9 10 19 20 25 33c3 5 7 9 12 13s10 8 15 13c7 7 17 9 25 8zM105 582c35 -6 71 1 106 -3c15 -2 31 -1 47 2c9 1 34 -13 37 -21s1 -12 -7 -13l-16 -1c-28 2 -89 8 -92 8c-23 2 -22 2 -19 -20
c4 -31 5 -63 4 -94c-1 -18 4 -33 9 -49c0 -15 -1 -31 0 -46c0 -23 3 -46 1 -70v-7c-1 -7 2 -11 10 -11c9 0 35 0 39 -1c5 0 9 -3 9 -8s-3 -8 -8 -9l-43 -1c-6 0 -9 -2 -11 -9c-5 -27 -8 -55 -10 -82l-6 -60c-1 -12 -5 -24 -4 -38c0 -12 1 -14 13 -14h44s26 -1 39 0
c11 0 20 -3 29 -9c4 -3 9 -6 6 -12c-3 -5 -5 -10 -13 -11c-18 -1 -36 -3 -55 0c-14 2 -30 4 -43 -1c-21 -7 -40 -8 -61 -2c-2 1 -5 0 -8 0c-26 -6 -48 8 -51 35c-1 10 -2 20 -1 30c3 27 2 54 5 80c3 32 10 63 12 95l2 28c-1 19 0 39 5 58c3 12 -1 26 1 39c5 47 9 95 13 142
c2 13 4 26 4 39l-1 18c-3 12 2 20 14 18z" />
    <glyph glyph-name="Ecircumflexacute" unicode="&#x1ebe;" horiz-adv-x="346" 
d="M252 864c4 -2 4 -9 -4 -26c-9 -19 -14 -35 -35 -56l-4 -3c-4 -2 -9 -5 -14 -6c-2 0 -4 0 -7 -1c-15 0 -17 17 -7 37c1 2 1 5 2 7c7 14 17 37 31 45c17 9 29 10 38 3zM197 736c6 0 8 -2 10 -5c7 -12 16 -23 26 -34c8 -10 16 -21 24 -32c6 -7 13 -15 18 -24
c2 -4 3 -7 0 -11c-3 -5 -7 -9 -11 -14c-2 -2 -4 -5 -7 -7h-6c-7 6 -13 13 -18 20l-1 1c-18 25 -39 47 -56 72c-4 5 -4 5 -9 0c-8 -8 -14 -18 -21 -27c-7 -11 -28 -35 -37 -44c-4 -3 -6 -6 -9 -9s-6 -5 -10 -4c-4 0 -8 4 -5 8c4 6 6 14 13 18c4 3 19 22 22 25
c9 10 19 20 25 33c3 5 7 9 12 13s10 8 15 13c7 7 17 9 25 8zM105 582c35 -6 71 1 106 -3c15 -2 31 -1 47 2c9 1 34 -13 37 -21s1 -12 -7 -13l-16 -1c-28 2 -89 8 -92 8c-23 2 -22 2 -19 -20c4 -31 5 -63 4 -94c-1 -18 4 -33 9 -49c0 -15 -1 -31 0 -46c0 -23 3 -46 1 -70v-7
c-1 -7 2 -11 10 -11c9 0 35 0 39 -1c5 0 9 -3 9 -8s-3 -8 -8 -9l-43 -1c-6 0 -9 -2 -11 -9c-5 -27 -8 -55 -10 -82l-6 -60c-1 -12 -5 -24 -4 -38c0 -12 1 -14 13 -14h44s26 -1 39 0c11 0 20 -3 29 -9c4 -3 9 -6 6 -12c-3 -5 -5 -10 -13 -11c-18 -1 -36 -3 -55 0
c-14 2 -30 4 -43 -1c-21 -7 -40 -8 -61 -2c-2 1 -5 0 -8 0c-26 -6 -48 8 -51 35c-1 10 -2 20 -1 30c3 27 2 54 5 80c3 32 10 63 12 95l2 28c-1 19 0 39 5 58c3 12 -1 26 1 39c5 47 9 95 13 142c2 13 4 26 4 39l-1 18c-3 12 2 20 14 18z" />
    <glyph glyph-name="Ecircumflexgrave" unicode="&#x1ec0;" horiz-adv-x="346" 
d="M139 900c3 -2 8 -2 10 -5c8 -11 20 -14 29 -22c7 -6 15 -11 21 -20c3 -5 8 -6 11 -9c5 -3 9 -8 15 -11c5 -2 6 -8 11 -11c2 -2 1 -5 -1 -6c-3 -2 -4 -5 -3 -9c1 -3 -2 -7 -3 -8c-4 -3 -4 -8 -5 -13c-1 -8 -12 -10 -18 -5l-27 27c-4 4 -9 8 -10 11c-2 5 -6 3 -8 6
c-2 4 -5 6 -8 10c-7 12 -18 22 -24 35c-4 7 -7 13 -5 20c1 5 2 11 7 10c3 0 5 -4 8 0zM203 754c6 0 8 -2 10 -5c7 -12 16 -23 26 -34c8 -10 16 -21 24 -32c6 -7 13 -15 18 -24c2 -4 3 -7 0 -11c-3 -5 -7 -9 -11 -14c-2 -2 -4 -5 -7 -7h-6c-7 6 -13 13 -18 20l-1 1
c-18 25 -39 47 -56 72c-4 5 -4 5 -9 0c-8 -8 -14 -18 -21 -27c-7 -11 -28 -35 -37 -44c-4 -3 -6 -6 -9 -9s-6 -5 -10 -4c-4 0 -8 4 -5 8c4 6 6 14 13 18c4 3 19 22 22 25c9 10 19 20 25 33c3 5 7 9 12 13s10 8 15 13c7 7 17 9 25 8zM105 582c35 -6 71 1 106 -3
c15 -2 31 -1 47 2c9 1 34 -13 37 -21s1 -12 -7 -13l-16 -1c-28 2 -89 8 -92 8c-23 2 -22 2 -19 -20c4 -31 5 -63 4 -94c-1 -18 4 -33 9 -49c0 -15 -1 -31 0 -46c0 -23 3 -46 1 -70v-7c-1 -7 2 -11 10 -11c9 0 35 0 39 -1c5 0 9 -3 9 -8s-3 -8 -8 -9l-43 -1
c-6 0 -9 -2 -11 -9c-5 -27 -8 -55 -10 -82l-6 -60c-1 -12 -5 -24 -4 -38c0 -12 1 -14 13 -14h44s26 -1 39 0c11 0 20 -3 29 -9c4 -3 9 -6 6 -12c-3 -5 -5 -10 -13 -11c-18 -1 -36 -3 -55 0c-14 2 -30 4 -43 -1c-21 -7 -40 -8 -61 -2c-2 1 -5 0 -8 0c-26 -6 -48 8 -51 35
c-1 10 -2 20 -1 30c3 27 2 54 5 80c3 32 10 63 12 95l2 28c-1 19 0 39 5 58c3 12 -1 26 1 39c5 47 9 95 13 142c2 13 4 26 4 39l-1 18c-3 12 2 20 14 18z" />
    <glyph glyph-name="Ecircumflextilde" unicode="&#x1ec4;" horiz-adv-x="346" 
d="M147 806c14 1 28 -5 41 -11c11 -7 19 -16 27 -25c8 -8 23 -9 33 -3c5 3 9 8 10 13c2 5 2 13 5 17c9 8 11 -9 11 -14c-1 -24 -20 -42 -42 -42c-4 1 -7 1 -10 2c-10 3 -17 10 -25 16c-5 3 -9 4 -13 6c-9 5 -18 7 -27 7c-16 1 -22 -9 -29 -23c-4 -8 -15 -18 -23 -12
c-8 5 -8 16 -6 25c4 13 10 21 17 31c9 8 20 12 31 13zM198 739c6 0 8 -2 10 -5c7 -12 16 -23 26 -34c8 -10 16 -21 24 -32c6 -7 13 -15 18 -24c2 -4 3 -7 0 -11c-3 -5 -7 -9 -11 -14c-2 -2 -4 -5 -7 -7h-6c-7 6 -13 13 -18 20l-1 1c-18 25 -39 47 -56 72c-4 5 -4 5 -9 0
c-8 -8 -14 -18 -21 -27c-7 -11 -28 -35 -37 -44c-4 -3 -6 -6 -9 -9s-6 -5 -10 -4c-4 0 -8 4 -5 8c4 6 6 14 13 18c4 3 19 22 22 25c9 10 19 20 25 33c3 5 7 9 12 13s10 8 15 13c7 7 17 9 25 8zM105 582c35 -6 71 1 106 -3c15 -2 31 -1 47 2c9 1 34 -13 37 -21s1 -12 -7 -13
l-16 -1c-28 2 -89 8 -92 8c-23 2 -22 2 -19 -20c4 -31 5 -63 4 -94c-1 -18 4 -33 9 -49c0 -15 -1 -31 0 -46c0 -23 3 -46 1 -70v-7c-1 -7 2 -11 10 -11c9 0 35 0 39 -1c5 0 9 -3 9 -8s-3 -8 -8 -9l-43 -1c-6 0 -9 -2 -11 -9c-5 -27 -8 -55 -10 -82l-6 -60
c-1 -12 -5 -24 -4 -38c0 -12 1 -14 13 -14h44s26 -1 39 0c11 0 20 -3 29 -9c4 -3 9 -6 6 -12c-3 -5 -5 -10 -13 -11c-18 -1 -36 -3 -55 0c-14 2 -30 4 -43 -1c-21 -7 -40 -8 -61 -2c-2 1 -5 0 -8 0c-26 -6 -48 8 -51 35c-1 10 -2 20 -1 30c3 27 2 54 5 80c3 32 10 63 12 95
l2 28c-1 19 0 39 5 58c3 12 -1 26 1 39c5 47 9 95 13 142c2 13 4 26 4 39l-1 18c-3 12 2 20 14 18z" />
    <glyph glyph-name="Edieresis" unicode="&#xcb;" horiz-adv-x="346" 
d="M128 681c10 10 25 6 26 -7c2 -9 8 -18 9 -28c0 -7 -4 -13 -4 -19c0 -2 0 -3 -2 -3c-5 2 -10 -6 -15 -2c-8 -1 -11 2 -15 7c-8 9 -13 17 -12 29c2 10 6 17 13 23zM218 681c9 10 24 6 26 -7c2 -9 8 -18 9 -28c1 -7 -4 -13 -3 -19c0 -2 -1 -3 -3 -3c-6 2 -10 -6 -15 -2
c-8 -1 -11 2 -15 7c-8 9 -12 17 -11 29c1 10 5 17 12 23zM105 582c35 -6 71 1 106 -3c15 -2 31 -1 47 2c9 1 34 -13 37 -21s1 -12 -7 -13l-16 -1c-28 2 -89 8 -92 8c-23 2 -22 2 -19 -20c4 -31 5 -63 4 -94c-1 -18 4 -33 9 -49c0 -15 -1 -31 0 -46c0 -23 3 -46 1 -70v-7
c-1 -7 2 -11 10 -11c9 0 35 0 39 -1c5 0 9 -3 9 -8s-3 -8 -8 -9l-43 -1c-6 0 -9 -2 -11 -9c-5 -27 -8 -55 -10 -82l-6 -60c-1 -12 -5 -24 -4 -38c0 -12 1 -14 13 -14h44s26 -1 39 0c11 0 20 -3 29 -9c4 -3 9 -6 6 -12c-3 -5 -5 -10 -13 -11c-18 -1 -36 -3 -55 0
c-14 2 -30 4 -43 -1c-21 -7 -40 -8 -61 -2c-2 1 -5 0 -8 0c-26 -6 -48 8 -51 35c-1 10 -2 20 -1 30c3 27 2 54 5 80c3 32 10 63 12 95l2 28c-1 19 0 39 5 58c3 12 -1 26 1 39c5 47 9 95 13 142c2 13 4 26 4 39l-1 18c-3 12 2 20 14 18z" />
    <glyph glyph-name="Edotaccent" unicode="&#x116;" horiz-adv-x="346" 
d="M177 708c9 9 23 5 25 -8c1 -9 8 -17 9 -27c0 -7 -3 -13 -3 -20c0 -1 -2 -2 -3 -1c-5 1 -10 -6 -14 -2c-8 -2 -11 2 -15 7c-8 8 -13 17 -11 28c1 9 5 17 12 23zM105 582c35 -6 71 1 106 -3c15 -2 31 -1 47 2c9 1 34 -13 37 -21s1 -12 -7 -13l-16 -1c-28 2 -89 8 -92 8
c-23 2 -22 2 -19 -20c4 -31 5 -63 4 -94c-1 -18 4 -33 9 -49c0 -15 -1 -31 0 -46c0 -23 3 -46 1 -70v-7c-1 -7 2 -11 10 -11c9 0 35 0 39 -1c5 0 9 -3 9 -8s-3 -8 -8 -9l-43 -1c-6 0 -9 -2 -11 -9c-5 -27 -8 -55 -10 -82l-6 -60c-1 -12 -5 -24 -4 -38c0 -12 1 -14 13 -14h44
s26 -1 39 0c11 0 20 -3 29 -9c4 -3 9 -6 6 -12c-3 -5 -5 -10 -13 -11c-18 -1 -36 -3 -55 0c-14 2 -30 4 -43 -1c-21 -7 -40 -8 -61 -2c-2 1 -5 0 -8 0c-26 -6 -48 8 -51 35c-1 10 -2 20 -1 30c3 27 2 54 5 80c3 32 10 63 12 95l2 28c-1 19 0 39 5 58c3 12 -1 26 1 39
c5 47 9 95 13 142c2 13 4 26 4 39l-1 18c-3 12 2 20 14 18z" />
    <glyph glyph-name="Egrave" unicode="&#xc8;" horiz-adv-x="346" 
d="M93 758c3 -2 8 -2 10 -5c8 -11 20 -14 29 -22c7 -6 15 -11 21 -20c3 -5 8 -6 11 -9c5 -3 9 -8 15 -11c5 -2 6 -8 11 -11c2 -2 1 -5 -1 -6c-3 -2 -4 -5 -3 -9c1 -3 -2 -7 -3 -8c-4 -3 -4 -8 -5 -13c-1 -8 -12 -10 -18 -5l-27 27c-4 4 -9 8 -10 11c-2 5 -6 3 -8 6
c-2 4 -5 6 -8 10c-7 12 -18 22 -24 35c-4 7 -7 13 -5 20c1 5 2 11 7 10c3 0 5 -4 8 0zM105 582c35 -6 71 1 106 -3c15 -2 31 -1 47 2c9 1 34 -13 37 -21s1 -12 -7 -13l-16 -1c-28 2 -89 8 -92 8c-23 2 -22 2 -19 -20c4 -31 5 -63 4 -94c-1 -18 4 -33 9 -49
c0 -15 -1 -31 0 -46c0 -23 3 -46 1 -70v-7c-1 -7 2 -11 10 -11c9 0 35 0 39 -1c5 0 9 -3 9 -8s-3 -8 -8 -9l-43 -1c-6 0 -9 -2 -11 -9c-5 -27 -8 -55 -10 -82l-6 -60c-1 -12 -5 -24 -4 -38c0 -12 1 -14 13 -14h44s26 -1 39 0c11 0 20 -3 29 -9c4 -3 9 -6 6 -12
c-3 -5 -5 -10 -13 -11c-18 -1 -36 -3 -55 0c-14 2 -30 4 -43 -1c-21 -7 -40 -8 -61 -2c-2 1 -5 0 -8 0c-26 -6 -48 8 -51 35c-1 10 -2 20 -1 30c3 27 2 54 5 80c3 32 10 63 12 95l2 28c-1 19 0 39 5 58c3 12 -1 26 1 39c5 47 9 95 13 142c2 13 4 26 4 39l-1 18
c-3 12 2 20 14 18z" />
    <glyph glyph-name="Emacron" unicode="&#x112;" horiz-adv-x="346" 
d="M257 688c8 -3 9 -13 18 -16c7 -14 -1 -15 -11 -21c-10 -1 -17 3 -26 3c-15 1 -30 -3 -45 -4c-87 -3 -121 -16 -116 16c2 13 89 -2 106 7c13 5 33 7 48 12c9 2 17 7 26 3zM105 582c35 -6 71 1 106 -3c15 -2 31 -1 47 2c9 1 34 -13 37 -21s1 -12 -7 -13l-16 -1
c-28 2 -89 8 -92 8c-23 2 -22 2 -19 -20c4 -31 5 -63 4 -94c-1 -18 4 -33 9 -49c0 -15 -1 -31 0 -46c0 -23 3 -46 1 -70v-7c-1 -7 2 -11 10 -11c9 0 35 0 39 -1c5 0 9 -3 9 -8s-3 -8 -8 -9l-43 -1c-6 0 -9 -2 -11 -9c-5 -27 -8 -55 -10 -82l-6 -60c-1 -12 -5 -24 -4 -38
c0 -12 1 -14 13 -14h44s26 -1 39 0c11 0 20 -3 29 -9c4 -3 9 -6 6 -12c-3 -5 -5 -10 -13 -11c-18 -1 -36 -3 -55 0c-14 2 -30 4 -43 -1c-21 -7 -40 -8 -61 -2c-2 1 -5 0 -8 0c-26 -6 -48 8 -51 35c-1 10 -2 20 -1 30c3 27 2 54 5 80c3 32 10 63 12 95l2 28c-1 19 0 39 5 58
c3 12 -1 26 1 39c5 47 9 95 13 142c2 13 4 26 4 39l-1 18c-3 12 2 20 14 18z" />
    <glyph glyph-name="Eogonek" unicode="&#x118;" horiz-adv-x="346" 
d="M296 -63c5 -8 3 -14 -6 -21c-22 -12 -44 -18 -66 -10c-8 3 -12 10 -17 17c-1 1 -2 2 -3 5c-7 6 -9 16 -9 24c1 14 2 24 10 36c3 6 7 10 12 15h-3c-14 2 -30 4 -43 -1c-21 -7 -40 -8 -61 -2c-2 1 -5 0 -8 0c-26 -6 -48 8 -51 35c-1 10 -2 20 -1 30c3 27 2 54 5 80
c3 32 10 63 12 95l2 28c-1 19 0 39 5 58c3 12 -1 26 1 39c5 47 9 95 13 142c2 13 4 26 4 39l-1 18c-3 12 2 20 14 18c35 -6 71 1 106 -3c15 -2 31 -1 47 2c9 1 34 -13 37 -21s1 -12 -7 -13l-16 -1c-28 2 -89 8 -92 8c-23 2 -22 2 -19 -20c4 -31 5 -63 4 -94
c-1 -18 4 -33 9 -49c0 -15 -1 -31 0 -46c0 -23 3 -46 1 -70v-7c-1 -7 2 -11 10 -11c9 0 35 0 39 -1c5 0 9 -3 9 -8s-3 -8 -8 -9l-43 -1c-6 0 -9 -2 -11 -9c-5 -27 -8 -55 -10 -82l-6 -60c-1 -12 -5 -24 -4 -38c0 -12 1 -14 13 -14h44s26 -1 39 0c11 0 20 -3 29 -9
c4 -3 9 -6 6 -12c-3 -5 -5 -10 -13 -11l-28 -2c-1 0 -1 -1 -2 -1l-4 -4l-5 -9c-4 -9 -5 -19 -3 -27c1 -8 3 -14 12 -14c8 -1 15 -6 22 0c6 4 8 9 16 9c6 1 13 -3 15 -9c1 -3 3 -6 4 -9z" />
    <glyph glyph-name="Etilde" unicode="&#x1ebc;" horiz-adv-x="346" 
d="M145 702c14 1 28 -5 41 -11c11 -7 19 -16 27 -25c8 -8 23 -9 33 -3c5 3 9 8 10 13c2 5 2 13 5 17c9 8 11 -9 11 -14c-1 -24 -20 -42 -42 -42c-4 1 -7 1 -10 2c-10 3 -17 10 -25 16c-5 3 -9 4 -13 6c-9 5 -18 7 -27 7c-16 1 -22 -9 -29 -23c-4 -8 -15 -18 -23 -12
c-8 5 -8 16 -6 25c4 13 10 21 17 31c9 8 20 12 31 13zM105 582c35 -6 71 1 106 -3c15 -2 31 -1 47 2c9 1 34 -13 37 -21s1 -12 -7 -13l-16 -1c-28 2 -89 8 -92 8c-23 2 -22 2 -19 -20c4 -31 5 -63 4 -94c-1 -18 4 -33 9 -49c0 -15 -1 -31 0 -46c0 -23 3 -46 1 -70v-7
c-1 -7 2 -11 10 -11c9 0 35 0 39 -1c5 0 9 -3 9 -8s-3 -8 -8 -9l-43 -1c-6 0 -9 -2 -11 -9c-5 -27 -8 -55 -10 -82l-6 -60c-1 -12 -5 -24 -4 -38c0 -12 1 -14 13 -14h44s26 -1 39 0c11 0 20 -3 29 -9c4 -3 9 -6 6 -12c-3 -5 -5 -10 -13 -11c-18 -1 -36 -3 -55 0
c-14 2 -30 4 -43 -1c-21 -7 -40 -8 -61 -2c-2 1 -5 0 -8 0c-26 -6 -48 8 -51 35c-1 10 -2 20 -1 30c3 27 2 54 5 80c3 32 10 63 12 95l2 28c-1 19 0 39 5 58c3 12 -1 26 1 39c5 47 9 95 13 142c2 13 4 26 4 39l-1 18c-3 12 2 20 14 18z" />
    <glyph glyph-name="F" unicode="F" horiz-adv-x="256" 
d="M139 575h18c11 2 18 -3 28 -5c27 0 52 1 67 -8c2 -2 4 -4 4 -7c0 -4 -14 -7 -18 -6l-100 7c-17 0 -17 -1 -16 -17l-2 -29c-2 -29 -1 -58 2 -88l-1 -39c-2 -19 0 -37 -1 -56l3 -41c3 -16 1 -33 0 -50c0 -11 0 -11 11 -12c20 -1 40 2 60 -2c3 -1 6 -1 8 -2l5 -6
c2 -5 -13 -11 -21 -11c-16 -2 -32 0 -48 1c-15 0 -17 -1 -17 -15c-1 -16 -2 -32 -2 -49c1 -26 -1 -53 -2 -79c-1 -9 -1 -19 -1 -28c-2 -17 -6 -21 -23 -25c-7 -1 -14 -4 -18 -9c-9 -11 -20 -8 -30 -5c-9 4 -13 13 -14 24c-1 28 2 55 3 83c1 29 0 58 3 88c2 28 5 57 6 86
c2 58 10 116 13 175c1 28 1 57 8 85c2 7 4 15 3 23l18 15c1 1 2 1 3 1c18 2 34 3 51 1z" />
    <glyph glyph-name="G" unicode="G" horiz-adv-x="356" 
d="M174 575c29 17 73 30 93 -6c12 -25 21 -49 19 -77l-3 -19c-1 -6 -3 -12 -10 -11s-11 6 -11 13c0 15 -2 29 -1 43c0 13 -5 48 -23 41s-32 -38 -40 -55c-23 -49 -25 -104 -37 -156c-16 -72 -20 -148 -18 -222c1 -23 0 -50 10 -72c13 -27 48 -28 60 1c11 28 20 57 20 88
c0 11 -1 12 -13 15c-23 5 -33 18 -33 42c-1 9 7 10 13 10c20 1 40 2 60 -1c16 -2 27 -9 37 -21c1 -2 2 -3 3 -4c11 -17 8 -24 -11 -29l-18 -1c-10 -1 -14 -4 -16 -14c-4 -18 -8 -36 -11 -54c-2 -15 -7 -29 -12 -43c-21 -24 -31 -33 -56 -35c-15 -2 -29 -4 -43 1
c-19 7 -35 18 -45 34c-13 21 -24 42 -32 65c-10 28 -12 57 -12 85c-1 39 7 77 14 115c5 22 7 45 14 67c20 60 38 122 75 175c8 11 16 19 27 25z" />
    <glyph glyph-name="Gbreve" unicode="&#x11e;" horiz-adv-x="356" 
d="M261 677c10 2 19 -2 23 -10c6 -11 2 -18 -5 -27c-14 -13 -41 -20 -60 -21c-14 2 -29 1 -42 10c-9 6 -18 11 -25 18c-5 6 -14 16 -12 25c0 5 2 5 6 5c7 -2 14 -5 18 -10c13 -15 30 -16 49 -14c10 1 20 3 28 9c6 5 12 12 20 15zM174 575c29 17 73 30 93 -6
c12 -25 21 -49 19 -77l-3 -19c-1 -6 -3 -12 -10 -11s-11 6 -11 13c0 15 -2 29 -1 43c0 13 -5 48 -23 41s-32 -38 -40 -55c-23 -49 -25 -104 -37 -156c-16 -72 -20 -148 -18 -222c1 -23 0 -50 10 -72c13 -27 48 -28 60 1c11 28 20 57 20 88c0 11 -1 12 -13 15
c-23 5 -33 18 -33 42c-1 9 7 10 13 10c20 1 40 2 60 -1c16 -2 27 -9 37 -21c1 -2 2 -3 3 -4c11 -17 8 -24 -11 -29l-18 -1c-10 -1 -14 -4 -16 -14c-4 -18 -8 -36 -11 -54c-2 -15 -7 -29 -12 -43c-21 -24 -31 -33 -56 -35c-15 -2 -29 -4 -43 1c-19 7 -35 18 -45 34
c-13 21 -24 42 -32 65c-10 28 -12 57 -12 85c-1 39 7 77 14 115c5 22 7 45 14 67c20 60 38 122 75 175c8 11 16 19 27 25z" />
    <glyph glyph-name="Gdotaccent" unicode="&#x120;" horiz-adv-x="356" 
d="M205 684c9 9 23 5 25 -8c1 -9 8 -17 9 -27c0 -7 -3 -13 -3 -20c0 -1 -2 -2 -3 -1c-5 1 -10 -6 -14 -2c-8 -2 -11 2 -15 7c-8 8 -13 17 -11 28c1 9 5 17 12 23zM174 575c29 17 73 30 93 -6c12 -25 21 -49 19 -77l-3 -19c-1 -6 -3 -12 -10 -11s-11 6 -11 13
c0 15 -2 29 -1 43c0 13 -5 48 -23 41s-32 -38 -40 -55c-23 -49 -25 -104 -37 -156c-16 -72 -20 -148 -18 -222c1 -23 0 -50 10 -72c13 -27 48 -28 60 1c11 28 20 57 20 88c0 11 -1 12 -13 15c-23 5 -33 18 -33 42c-1 9 7 10 13 10c20 1 40 2 60 -1c16 -2 27 -9 37 -21
c1 -2 2 -3 3 -4c11 -17 8 -24 -11 -29l-18 -1c-10 -1 -14 -4 -16 -14c-4 -18 -8 -36 -11 -54c-2 -15 -7 -29 -12 -43c-21 -24 -31 -33 -56 -35c-15 -2 -29 -4 -43 1c-19 7 -35 18 -45 34c-13 21 -24 42 -32 65c-10 28 -12 57 -12 85c-1 39 7 77 14 115c5 22 7 45 14 67
c20 60 38 122 75 175c8 11 16 19 27 25z" />
    <glyph glyph-name="H" unicode="H" horiz-adv-x="277" 
d="M117 577c4 -1 5 -2 8 -5c9 -11 9 -24 7 -37c-2 -11 -2 -23 -2 -35c-1 -39 -1 -77 -6 -115c-2 -22 -1 -43 -2 -65c0 -16 3 -33 -2 -49v-3c1 -23 -3 -25 25 -24c11 0 21 -3 31 -4c15 -2 16 -1 19 14c3 16 0 31 1 47c0 36 3 73 3 109c0 13 -2 26 -1 39c1 33 1 67 2 101v3
c1 5 0 12 7 13c13 4 14 -18 14 -21c0 -37 1 -74 -1 -111c-2 -47 -5 -93 -11 -140c-1 -9 -1 -19 0 -29c1 -14 0 -28 0 -42c-1 -17 0 -33 2 -50c4 -54 7 -108 15 -162c1 -5 4 -13 -4 -15c-7 -2 -13 3 -15 12c-1 7 -3 15 -3 23c-1 44 -8 88 -9 133c-1 3 0 7 0 11c1 6 1 13 1 19
c0 28 -2 30 -29 29c-10 0 -19 1 -29 1c-11 0 -15 -4 -17 -16c0 -8 -2 -16 0 -24c3 -20 1 -41 0 -61c-1 -19 2 -37 4 -55c3 -18 4 -36 1 -54c-1 -11 -4 -14 -15 -14c-12 -1 -23 0 -34 1c-12 2 -15 6 -17 19c-5 26 -3 53 -7 79c-4 30 -2 61 -2 91c-1 10 1 19 1 29
c0 54 0 107 2 161c1 43 5 86 11 128c2 18 1 37 8 54c7 18 26 19 44 15z" />
    <glyph glyph-name="Hbar" unicode="&#x126;" horiz-adv-x="277" 
d="M214 340l-5 -46c-1 -9 -1 -19 0 -29c1 -14 0 -28 0 -42c-1 -17 0 -33 2 -50c4 -54 7 -108 15 -162c1 -5 4 -13 -4 -15c-7 -2 -13 3 -15 12c-1 7 -3 15 -3 23c-1 44 -8 88 -9 133c-1 3 0 7 0 11c1 6 1 13 1 19c0 28 -2 30 -29 29c-10 0 -19 1 -29 1c-11 0 -15 -4 -17 -16
c0 -8 -2 -16 0 -24c3 -20 1 -41 0 -61c-1 -19 2 -37 4 -55c3 -18 4 -36 1 -54c-1 -11 -4 -14 -15 -14c-12 -1 -23 0 -34 1c-12 2 -15 6 -17 19c-5 26 -3 53 -7 79c-4 30 -2 61 -2 91c-1 10 1 19 1 29c0 38 0 76 1 115c-12 2 -16 7 -14 20c0 3 6 5 14 5l1 21
c1 43 5 86 11 128c2 18 1 37 8 54c7 18 26 19 44 15c4 -1 5 -2 8 -5c9 -11 9 -24 7 -37c-2 -11 -2 -23 -2 -35c-1 -39 -1 -77 -6 -115c-1 -9 -1 -18 -1 -27c10 0 18 1 22 3c13 5 33 7 48 12l5 1c1 12 1 24 1 36c0 13 -2 26 -1 39c1 33 1 67 2 101v3c1 5 0 12 7 13
c13 4 14 -18 14 -21c0 -37 1 -74 -1 -111l-3 -57c1 0 1 -1 2 -1c8 -3 9 -13 18 -16c7 -14 -1 -15 -11 -21c-4 0 -8 0 -12 1zM195 254c3 16 0 31 1 47c0 14 0 27 1 41c-14 0 -28 -3 -42 -4l-33 -2v-16c0 -16 3 -33 -2 -49v-3c1 -23 -3 -25 25 -24c11 0 21 -3 31 -4
c15 -2 16 -1 19 14z" />
    <glyph glyph-name="I" unicode="I" horiz-adv-x="179" 
d="M92 574l13 -7c12 -3 15 -9 17 -22c3 -17 3 -34 5 -231c0 -27 3 -53 1 -80c-1 -7 0 -34 0 -50v-26c-1 -10 0 -19 -4 -29c-3 -5 -3 -13 -3 -19l-6 -42c-3 -13 -2 -25 -2 -37c0 -9 0 -16 -4 -24c-2 -2 -3 -4 -6 -3l-17 -18c-9 -7 -15 -6 -21 4c-6 8 -7 17 -8 27
c-2 27 -3 55 -5 82c0 7 -1 15 -1 22c-3 17 1 33 0 50c-2 17 -1 34 0 51c1 38 3 257 4 295c1 13 4 26 4 39c-1 3 1 6 4 7c6 4 13 8 20 11h9z" />
    <glyph glyph-name="IJ" unicode="&#x132;" horiz-adv-x="417" 
d="M316 589c3 0 6 0 8 -2c7 -8 16 -6 25 -7c5 0 9 -1 13 -1c5 -1 9 -2 10 -8c1 -5 0 -11 -5 -12c-12 -4 -10 -13 -9 -22c2 -20 4 -39 5 -59c5 -46 4 -92 7 -138l3 -63c0 -21 -3 -43 -1 -64c5 -44 -1 -92 -15 -135c-12 -33 -35 -72 -72 -81c-16 -3 -33 -3 -49 -1
c-17 3 -26 17 -35 32c-3 7 -3 16 -4 26c-2 10 -1 20 3 31c4 8 9 8 15 3c4 -5 6 -11 6 -16c-3 -15 7 -27 9 -41c3 -6 8 -9 15 -9c26 -1 40 11 42 41c2 36 2 72 4 108c2 42 3 84 4 126c0 26 0 51 1 78c3 55 -2 110 4 165c2 14 0 15 -14 19c-10 0 -19 3 -27 9c-3 3 -7 4 -6 9
c1 4 5 4 8 5c19 5 37 2 55 7zM92 574l13 -7c12 -3 15 -9 17 -22c3 -17 3 -34 5 -231c0 -27 3 -53 1 -80c-1 -7 0 -34 0 -50v-26c-1 -10 0 -19 -4 -29c-3 -5 -3 -13 -3 -19l-6 -42c-3 -13 -2 -25 -2 -37c0 -9 0 -16 -4 -24c-2 -2 -3 -4 -6 -3l-17 -18c-9 -7 -15 -6 -21 4
c-6 8 -7 17 -8 27c-2 27 -3 55 -5 82c0 7 -1 15 -1 22c-3 17 1 33 0 50c-2 17 -1 34 0 51c1 38 3 257 4 295c1 13 4 26 4 39c-1 3 1 6 4 7c6 4 13 8 20 11h9z" />
    <glyph glyph-name="Iacute" unicode="&#xcd;" horiz-adv-x="179" 
d="M127 314c0 -27 3 -53 1 -80c-1 -7 0 -34 0 -50v-26c-1 -10 0 -19 -4 -29c-3 -5 -3 -13 -3 -19l-6 -42c-3 -13 -2 -25 -2 -37c0 -9 0 -16 -4 -24c-2 -2 -3 -4 -6 -3l-17 -18c-9 -7 -15 -6 -21 4c-6 8 -7 17 -8 27c-2 27 -3 55 -5 82c0 7 -1 15 -1 22c-3 17 1 33 0 50
c-2 17 -1 34 0 51c1 33 2 203 3 272c-10 3 -11 18 -2 36c1 2 1 5 2 7l4 9c1 3 1 7 1 10c-1 3 1 6 4 7l8 5c4 6 9 11 14 14c17 9 29 10 38 3c4 -2 4 -9 -4 -26l-1 -1c2 -3 3 -8 4 -13c3 -17 3 -34 5 -231z" />
    <glyph glyph-name="Icaron" unicode="&#x1cf;" horiz-adv-x="179" 
d="M29 738c8 -6 14 -12 20 -19l1 -1c19 -24 41 -45 59 -69c5 -5 5 -5 9 0c8 9 13 19 19 29c8 10 27 36 35 46c5 3 6 5 9 8c3 4 6 6 10 5c4 0 8 -3 5 -7c-4 -7 -5 -15 -12 -19c-4 -4 -17 -23 -20 -26c-9 -11 -19 -22 -24 -34c-2 -5 -6 -10 -12 -14l-14 -14
c-6 -8 -16 -9 -24 -9c-6 0 -8 1 -10 4c-8 12 -17 22 -28 33c-9 10 -17 20 -25 30c-7 7 -14 15 -20 24c-2 4 -4 7 0 11c3 5 6 9 10 14l6 7c2 0 4 1 6 1zM92 574l13 -7c12 -3 15 -9 17 -22c3 -17 3 -34 5 -231c0 -27 3 -53 1 -80c-1 -7 0 -34 0 -50v-26c-1 -10 0 -19 -4 -29
c-3 -5 -3 -13 -3 -19l-6 -42c-3 -13 -2 -25 -2 -37c0 -9 0 -16 -4 -24c-2 -2 -3 -4 -6 -3l-17 -18c-9 -7 -15 -6 -21 4c-6 8 -7 17 -8 27c-2 27 -3 55 -5 82c0 7 -1 15 -1 22c-3 17 1 33 0 50c-2 17 -1 34 0 51c1 38 3 257 4 295c1 13 4 26 4 39c-1 3 1 6 4 7
c6 4 13 8 20 11h9z" />
    <glyph glyph-name="Icircumflex" unicode="&#xce;" horiz-adv-x="179" 
d="M115 692c6 0 8 -2 10 -5c7 -12 16 -23 26 -34c8 -10 16 -21 24 -32c6 -7 13 -15 18 -24c2 -4 3 -7 0 -11c-3 -5 -7 -9 -11 -14c-2 -2 -4 -5 -7 -7h-6c-7 6 -13 13 -18 20l-1 1c-18 25 -39 47 -56 72c-4 5 -4 5 -9 0c-8 -8 -14 -18 -21 -27c-7 -11 -28 -35 -37 -44
c-4 -3 -6 -6 -9 -9s-6 -5 -10 -4c-4 0 -8 4 -5 8c4 6 6 14 13 18c4 3 19 22 22 25c9 10 19 20 25 33c3 5 7 9 12 13s10 8 15 13c7 7 17 9 25 8zM92 574l13 -7c12 -3 15 -9 17 -22c3 -17 3 -34 5 -231c0 -27 3 -53 1 -80c-1 -7 0 -34 0 -50v-26c-1 -10 0 -19 -4 -29
c-3 -5 -3 -13 -3 -19l-6 -42c-3 -13 -2 -25 -2 -37c0 -9 0 -16 -4 -24c-2 -2 -3 -4 -6 -3l-17 -18c-9 -7 -15 -6 -21 4c-6 8 -7 17 -8 27c-2 27 -3 55 -5 82c0 7 -1 15 -1 22c-3 17 1 33 0 50c-2 17 -1 34 0 51c1 38 3 257 4 295c1 13 4 26 4 39c-1 3 1 6 4 7
c6 4 13 8 20 11h9z" />
    <glyph glyph-name="Idieresis" unicode="&#xcf;" horiz-adv-x="179" 
d="M31 673c10 10 25 6 26 -7c2 -9 8 -18 9 -28c0 -7 -4 -13 -4 -19c0 -2 0 -3 -2 -3c-5 2 -10 -6 -15 -2c-8 -1 -11 2 -15 7c-8 9 -13 17 -12 29c2 10 6 17 13 23zM121 673c9 10 24 6 26 -7c2 -9 8 -18 9 -28c1 -7 -4 -13 -3 -19c0 -2 -1 -3 -3 -3c-6 2 -10 -6 -15 -2
c-8 -1 -11 2 -15 7c-8 9 -12 17 -11 29c1 10 5 17 12 23zM92 574l13 -7c12 -3 15 -9 17 -22c3 -17 3 -34 5 -231c0 -27 3 -53 1 -80c-1 -7 0 -34 0 -50v-26c-1 -10 0 -19 -4 -29c-3 -5 -3 -13 -3 -19l-6 -42c-3 -13 -2 -25 -2 -37c0 -9 0 -16 -4 -24c-2 -2 -3 -4 -6 -3
l-17 -18c-9 -7 -15 -6 -21 4c-6 8 -7 17 -8 27c-2 27 -3 55 -5 82c0 7 -1 15 -1 22c-3 17 1 33 0 50c-2 17 -1 34 0 51c1 38 3 257 4 295c1 13 4 26 4 39c-1 3 1 6 4 7c6 4 13 8 20 11h9z" />
    <glyph glyph-name="Idotaccent" unicode="&#x130;" horiz-adv-x="179" 
d="M57 667c9 9 23 5 25 -8c1 -9 8 -17 9 -27c0 -7 -3 -13 -3 -20c0 -1 -2 -2 -3 -1c-5 1 -10 -6 -14 -2c-8 -2 -11 2 -15 7c-8 8 -13 17 -11 28c1 9 5 17 12 23zM92 574l13 -7c12 -3 15 -9 17 -22c3 -17 3 -34 5 -231c0 -27 3 -53 1 -80c-1 -7 0 -34 0 -50v-26
c-1 -10 0 -19 -4 -29c-3 -5 -3 -13 -3 -19l-6 -42c-3 -13 -2 -25 -2 -37c0 -9 0 -16 -4 -24c-2 -2 -3 -4 -6 -3l-17 -18c-9 -7 -15 -6 -21 4c-6 8 -7 17 -8 27c-2 27 -3 55 -5 82c0 7 -1 15 -1 22c-3 17 1 33 0 50c-2 17 -1 34 0 51c1 38 3 257 4 295c1 13 4 26 4 39
c-1 3 1 6 4 7c6 4 13 8 20 11h9z" />
    <glyph glyph-name="Igrave" unicode="&#xcc;" horiz-adv-x="179" 
d="M16 744c3 -2 8 -2 10 -5c8 -11 20 -14 29 -22c7 -6 15 -11 21 -20c3 -5 8 -6 11 -9c5 -3 9 -8 15 -11c5 -2 6 -8 11 -11c2 -2 1 -5 -1 -6c-3 -2 -4 -5 -3 -9c1 -3 -2 -7 -3 -8c-4 -3 -4 -8 -5 -13c-1 -8 -12 -10 -18 -5l-27 27c-4 4 -9 8 -10 11c-2 5 -6 3 -8 6
c-2 4 -5 6 -8 10c-7 12 -18 22 -24 35c-4 7 -7 13 -5 20c1 5 2 11 7 10c3 0 5 -4 8 0zM92 574l13 -7c12 -3 15 -9 17 -22c3 -17 3 -34 5 -231c0 -27 3 -53 1 -80c-1 -7 0 -34 0 -50v-26c-1 -10 0 -19 -4 -29c-3 -5 -3 -13 -3 -19l-6 -42c-3 -13 -2 -25 -2 -37
c0 -9 0 -16 -4 -24c-2 -2 -3 -4 -6 -3l-17 -18c-9 -7 -15 -6 -21 4c-6 8 -7 17 -8 27c-2 27 -3 55 -5 82c0 7 -1 15 -1 22c-3 17 1 33 0 50c-2 17 -1 34 0 51c1 38 3 257 4 295c1 13 4 26 4 39c-1 3 1 6 4 7c6 4 13 8 20 11h9z" />
    <glyph glyph-name="Imacron" unicode="&#x12a;" horiz-adv-x="179" 
d="M171 659c8 -3 9 -13 18 -16c7 -14 -1 -15 -11 -21c-10 -1 -17 3 -26 3c-15 1 -30 -3 -45 -4c-87 -3 -121 -16 -116 16c2 13 89 -2 106 7c13 5 33 7 48 12c9 2 17 7 26 3zM92 574l13 -7c12 -3 15 -9 17 -22c3 -17 3 -34 5 -231c0 -27 3 -53 1 -80c-1 -7 0 -34 0 -50v-26
c-1 -10 0 -19 -4 -29c-3 -5 -3 -13 -3 -19l-6 -42c-3 -13 -2 -25 -2 -37c0 -9 0 -16 -4 -24c-2 -2 -3 -4 -6 -3l-17 -18c-9 -7 -15 -6 -21 4c-6 8 -7 17 -8 27c-2 27 -3 55 -5 82c0 7 -1 15 -1 22c-3 17 1 33 0 50c-2 17 -1 34 0 51c1 38 3 257 4 295c1 13 4 26 4 39
c-1 3 1 6 4 7c6 4 13 8 20 11h9z" />
    <glyph glyph-name="Iogonek" unicode="&#x12e;" horiz-adv-x="179" 
d="M144 -65c5 -8 3 -14 -6 -21c-22 -12 -44 -18 -66 -10c-8 3 -12 10 -17 17c-1 1 -2 2 -3 5c-7 6 -9 16 -9 24c1 14 2 24 10 36c2 4 5 8 8 11c-3 6 -3 13 -4 20c-2 27 -3 55 -5 82c0 7 -1 15 -1 22c-3 17 1 33 0 50c-2 17 -1 34 0 51c1 38 3 257 4 295c1 13 4 26 4 39
c-1 3 1 6 4 7c6 4 13 8 20 11h9l13 -7c12 -3 15 -9 17 -22c3 -17 3 -34 5 -231c0 -27 3 -53 1 -80c-1 -7 0 -34 0 -50v-26c-1 -10 0 -19 -4 -29c-3 -5 -3 -13 -3 -19l-6 -42c-3 -13 -2 -25 -2 -37c0 -9 0 -16 -4 -24c-2 -2 -3 -4 -6 -3l-17 -18c-4 -3 -7 -4 -9 -4
c-3 -9 -4 -17 -2 -24c1 -8 3 -14 12 -14c8 -1 15 -6 22 0c6 4 8 9 16 9c6 1 13 -3 15 -9c1 -3 3 -6 4 -9z" />
    <glyph glyph-name="Itilde" unicode="&#x128;" horiz-adv-x="179" 
d="M55 677c14 1 28 -5 41 -11c11 -7 19 -16 27 -25c8 -8 23 -9 33 -3c5 3 9 8 10 13c2 5 2 13 5 17c9 8 11 -9 11 -14c-1 -24 -20 -42 -42 -42c-4 1 -7 1 -10 2c-10 3 -17 10 -25 16c-5 3 -9 4 -13 6c-9 5 -18 7 -27 7c-16 1 -22 -9 -29 -23c-4 -8 -15 -18 -23 -12
c-8 5 -8 16 -6 25c4 13 10 21 17 31c9 8 20 12 31 13zM92 574l13 -7c12 -3 15 -9 17 -22c3 -17 3 -34 5 -231c0 -27 3 -53 1 -80c-1 -7 0 -34 0 -50v-26c-1 -10 0 -19 -4 -29c-3 -5 -3 -13 -3 -19l-6 -42c-3 -13 -2 -25 -2 -37c0 -9 0 -16 -4 -24c-2 -2 -3 -4 -6 -3l-17 -18
c-9 -7 -15 -6 -21 4c-6 8 -7 17 -8 27c-2 27 -3 55 -5 82c0 7 -1 15 -1 22c-3 17 1 33 0 50c-2 17 -1 34 0 51c1 38 3 257 4 295c1 13 4 26 4 39c-1 3 1 6 4 7c6 4 13 8 20 11h9z" />
    <glyph glyph-name="J" unicode="J" horiz-adv-x="238" 
d="M137 589c3 0 6 0 8 -2c7 -8 16 -6 25 -7c5 0 9 -1 13 -1c5 -1 9 -2 10 -8c1 -5 0 -11 -5 -12c-12 -4 -10 -13 -9 -22c2 -20 4 -39 5 -59c5 -46 4 -92 7 -138l3 -63c0 -21 -3 -43 -1 -64c5 -44 -1 -92 -15 -135c-12 -33 -35 -72 -72 -81c-16 -3 -33 -3 -49 -1
c-17 3 -26 17 -35 32c-3 7 -3 16 -4 26c-2 10 -1 20 3 31c4 8 9 8 15 3c4 -5 6 -11 6 -16c-3 -15 7 -27 9 -41c3 -6 8 -9 15 -9c26 -1 40 11 42 41c2 36 2 72 4 108c2 42 3 84 4 126c0 26 0 51 1 78c3 55 -2 110 4 165c2 14 0 15 -14 19c-10 0 -19 3 -27 9c-3 3 -7 4 -6 9
c1 4 5 4 8 5c19 5 37 2 55 7z" />
    <glyph glyph-name="K" unicode="K" horiz-adv-x="373" 
d="M74 570c17 3 34 1 50 -1c1 -1 2 -2 3 -2c1 -3 3 -5 5 -8c-1 -2 0 -5 1 -12l6 -24c2 -16 5 -33 4 -50c-1 -13 1 -27 2 -40c1 -19 0 -37 0 -55c0 -15 2 -30 -1 -45c18 19 34 40 47 62c16 27 34 53 48 81c11 22 22 43 33 64c2 5 5 9 8 14c8 11 11 11 18 -2c4 -8 5 -16 1 -25
c-13 -26 -25 -51 -37 -78c-8 -17 -15 -35 -24 -52c-9 -18 -20 -36 -32 -52c-7 -9 -9 -17 -4 -28c10 -20 17 -41 28 -60c9 -15 14 -32 20 -48c18 -50 35 -99 51 -149c7 -20 18 -38 21 -59c0 0 0 -1 1 -2c-4 -5 -12 -7 -19 -6c-1 1 -2 2 -3 4c-26 38 -37 81 -52 124l-60 172
c-2 5 -3 11 -8 15c-7 -4 -12 -11 -17 -18c-6 -8 -10 -17 -17 -23c-5 -4 -4 -10 -4 -16c-1 -16 3 -32 3 -48c0 -39 1 -79 1 -118c0 -16 -1 -33 -6 -49c-2 -10 -7 -17 -16 -22c-2 -1 -4 -2 -6 -4c-3 -2 -4 -5 -3 -8c-17 -4 -34 -7 -49 1c0 1 -1 4 -3 7c-4 6 -6 12 -7 19
c0 20 -5 40 -4 61c1 9 1 18 -1 26c-2 16 -2 32 -1 47c3 29 2 59 4 88c2 19 0 38 2 57c3 55 6 110 10 165c2 25 4 50 7 75c1 8 1 12 -2 14c1 3 2 6 2 8z" />
    <glyph glyph-name="L" unicode="L" horiz-adv-x="243" 
d="M76 593l20 -3c9 -2 18 -18 17 -30c-1 -16 -1 -32 1 -48l1 -12c-4 -36 -2 -73 -3 -110l-5 -70c-1 -23 -5 -47 -7 -71c-2 -10 2 -19 1 -22c-4 -26 -3 -52 -6 -78l4 -48c5 -16 4 -60 4 -76c0 -6 3 -9 9 -9c29 -1 57 -9 86 -7c7 1 14 0 20 -3c2 -6 2 -11 -1 -16
c-1 -1 -3 -1 -4 -2c-23 3 -47 3 -71 6c-17 1 -34 1 -51 6c-6 2 -11 1 -15 -4c-3 -3 -6 -5 -10 -5l-5 2l-25 12c-15 28 -12 59 -16 88c-4 32 -5 65 -3 98c3 50 5 101 10 152c6 68 16 117 19 167l8 49c1 7 2 13 0 19c5 7 5 7 22 15z" />
    <glyph glyph-name="Lacute" unicode="&#x139;" horiz-adv-x="243" 
d="M158 726c4 -2 4 -9 -4 -26c-9 -19 -14 -35 -35 -56l-4 -3c-4 -2 -9 -5 -14 -6c-2 0 -4 0 -7 -1c-15 0 -17 17 -7 37c1 2 1 5 2 7c7 14 17 37 31 45c17 9 29 10 38 3zM76 593l20 -3c9 -2 18 -18 17 -30c-1 -16 -1 -32 1 -48l1 -12c-4 -36 -2 -73 -3 -110l-5 -70
c-1 -23 -5 -47 -7 -71c-2 -10 2 -19 1 -22c-4 -26 -3 -52 -6 -78l4 -48c5 -16 4 -60 4 -76c0 -6 3 -9 9 -9c29 -1 57 -9 86 -7c7 1 14 0 20 -3c2 -6 2 -11 -1 -16c-1 -1 -3 -1 -4 -2c-23 3 -47 3 -71 6c-17 1 -34 1 -51 6c-6 2 -11 1 -15 -4c-3 -3 -6 -5 -10 -5l-5 2l-25 12
c-15 28 -12 59 -16 88c-4 32 -5 65 -3 98c3 50 5 101 10 152c6 68 16 117 19 167l8 49c1 7 2 13 0 19c5 7 5 7 22 15z" />
    <glyph glyph-name="Lcaron" unicode="&#x13d;" horiz-adv-x="243" 
d="M76 593l20 -3c9 -2 18 -18 17 -30c-1 -16 -1 -32 1 -48l1 -12c-4 -36 -2 -73 -3 -110l-5 -70c-1 -23 -5 -47 -7 -71c-2 -10 2 -19 1 -22c-4 -26 -3 -52 -6 -78l4 -48c5 -16 4 -60 4 -76c0 -6 3 -9 9 -9c29 -1 57 -9 86 -7c7 1 14 0 20 -3c2 -6 2 -11 -1 -16
c-1 -1 -3 -1 -4 -2c-23 3 -47 3 -71 6c-17 1 -34 1 -51 6c-6 2 -11 1 -15 -4c-3 -3 -6 -5 -10 -5l-5 2l-25 12c-15 28 -12 59 -16 88c-4 32 -5 65 -3 98c3 50 5 101 10 152c6 68 16 117 19 167l8 49c1 7 2 13 0 19c5 7 5 7 22 15zM255 570c4 -2 4 -9 -4 -26
c-9 -19 -14 -35 -35 -56l-4 -3c-4 -2 -9 -5 -14 -6c-2 0 -4 0 -7 -1c-15 0 -17 17 -7 37c1 2 1 5 2 7c7 14 17 37 31 45c17 9 29 10 38 3z" />
    <glyph glyph-name="Ldot" unicode="&#x13f;" horiz-adv-x="243" 
d="M76 593l20 -3c9 -2 18 -18 17 -30c-1 -16 -1 -32 1 -48l1 -12c-4 -36 -2 -73 -3 -110l-5 -70c-1 -23 -5 -47 -7 -71c-2 -10 2 -19 1 -22c-4 -26 -3 -52 -6 -78l4 -48c5 -16 4 -60 4 -76c0 -6 3 -9 9 -9c29 -1 57 -9 86 -7c7 1 14 0 20 -3c2 -6 2 -11 -1 -16
c-1 -1 -3 -1 -4 -2c-23 3 -47 3 -71 6c-17 1 -34 1 -51 6c-6 2 -11 1 -15 -4c-3 -3 -6 -5 -10 -5l-5 2l-25 12c-15 28 -12 59 -16 88c-4 32 -5 65 -3 98c3 50 5 101 10 152c6 68 16 117 19 167l8 49c1 7 2 13 0 19c5 7 5 7 22 15zM-58 252c9 9 23 5 25 -8c1 -9 8 -17 9 -27
c0 -7 -3 -13 -3 -20c0 -1 -2 -2 -3 -1c-5 1 -10 -6 -14 -2c-8 -2 -11 2 -15 7c-8 8 -13 17 -11 28c1 9 5 17 12 23z" />
    <glyph glyph-name="Lslash" unicode="&#x141;" horiz-adv-x="243" 
d="M287 411c3 -9 -7 -24 -15 -24c-10 0 -15 -4 -22 -14c-11 -12 -22 -22 -33 -34c-48 -48 -80 -84 -118 -127c-2 -21 -2 -42 -4 -63l4 -48c5 -16 4 -60 4 -76c0 -6 3 -9 9 -9c29 -1 57 -9 86 -7c7 1 14 0 20 -3c2 -6 2 -11 -1 -16c-1 -1 -3 -1 -4 -2c-23 3 -47 3 -71 6
c-17 1 -34 1 -51 6c-6 2 -11 1 -15 -4c-3 -3 -6 -5 -10 -5l-5 2l-25 12c-15 28 -12 59 -16 88l-3 30c-2 0 -5 -1 -7 -4c0 -2 -5 1 -6 1l-25 16c1 2 2 5 2 9c3 0 4 4 6 6c2 5 6 10 11 15c7 5 13 11 19 17v8c3 50 5 101 10 152c6 68 16 117 19 167l8 49c1 7 2 13 0 19
c5 7 5 7 22 15l20 -3c9 -2 18 -18 17 -30c-1 -16 -1 -32 1 -48l1 -12c-4 -36 -2 -73 -3 -110l-5 -70c-1 -14 -2 -28 -4 -42c73 77 37 43 135 140c1 1 3 3 5 4c4 3 8 6 14 8l27 -16c1 0 3 -2 3 -3z" />
    <glyph glyph-name="M" unicode="M" horiz-adv-x="383" 
d="M325 569c3 -2 5 -6 5 -10c-2 -22 1 -45 2 -68c1 -38 2 -76 1 -113c-2 -48 0 -95 -1 -142c-3 -37 1 -75 -3 -112c-2 -30 -1 -60 -2 -90c1 -10 -1 -18 -8 -27c-20 -27 -19 31 -17 39c2 14 1 29 0 43c-1 43 3 86 1 130c-1 28 3 56 3 84c-1 50 -1 99 -1 147c0 2 0 4 -2 7
c-1 -1 -2 -1 -3 -1c-3 -10 -8 -21 -13 -32c-7 -20 -17 -37 -25 -56c-2 -5 -6 -5 -11 -7c-25 -6 -36 9 -46 27c-16 27 -32 55 -46 84c-7 14 -19 23 -27 40c-2 -15 -5 -27 -3 -38c3 -25 1 -50 3 -75c2 -18 -1 -37 -1 -56c1 -17 1 -33 0 -49c-1 -17 -1 -34 -3 -53
c-1 -12 -1 -25 0 -38c3 -24 3 -49 2 -73c-3 -31 -4 -61 -5 -91c1 -9 1 -16 -8 -21c-4 -2 -8 -7 -9 -11c-3 -12 -12 -14 -20 -12c-9 1 -19 2 -24 12c-13 21 -15 44 -14 67c1 44 4 88 2 132c0 27 0 54 2 81c1 19 1 38 1 58c3 36 8 73 12 109c3 20 4 40 7 59c2 10 6 20 7 30
c0 5 -5 10 -4 15c7 17 37 20 45 3c9 -14 16 -28 24 -42c16 -27 33 -54 50 -81c3 -4 5 -9 7 -13c3 -5 5 -11 12 -15c10 26 23 49 35 74c14 25 26 54 41 79c9 15 21 17 34 6z" />
    <glyph glyph-name="N" unicode="N" 
d="M255 579l15 -3c9 -3 14 -10 15 -20c1 -16 0 -33 -1 -50c-4 -50 -10 -100 -12 -150c-2 -39 -1 -78 -3 -117c-1 -34 3 -69 -1 -103c-1 -13 0 -27 2 -40c3 -20 -3 -40 0 -60c2 -9 -4 -16 -10 -22c-4 -3 -9 -6 -11 -11c-4 -7 -9 -7 -16 -5c-13 5 -23 15 -24 30
c-3 44 -5 88 -4 132c0 28 1 56 2 84c0 13 -5 25 -9 36c-9 26 -17 52 -29 76c-15 31 -23 64 -43 96c-1 -62 -1 -120 2 -179c2 -18 -1 -35 0 -53c0 -22 -2 -43 -1 -65c0 -27 -2 -53 -4 -80c-1 -3 -2 -6 -1 -9c1 -16 -3 -31 -10 -46c-3 -4 -6 -9 -5 -14c-9 -5 -19 -10 -28 -6
c-1 0 -1 0 -2 1v2c-1 2 -3 3 -4 4c-15 12 -20 29 -21 46c-3 44 -2 87 0 131c0 17 -1 34 1 52c1 20 1 41 1 61c-2 50 -1 99 4 148c3 24 3 49 9 73c2 9 1 18 0 27c-1 5 0 9 3 14c5 11 14 12 23 10c8 -1 15 -5 23 -6c3 0 4 -3 5 -5c3 -15 9 -28 6 -43c-1 -6 -2 -11 2 -16
c8 -12 11 -26 19 -38c7 -11 12 -23 15 -36c6 -27 19 -51 29 -77c4 -9 5 -18 13 -27l3 48c3 38 6 76 12 113c5 27 8 54 12 81c3 16 7 19 23 16z" />
    <glyph glyph-name="Nacute" unicode="&#x143;" 
d="M235 695c4 -2 4 -9 -4 -26c-9 -19 -14 -35 -35 -56l-4 -3c-4 -2 -9 -5 -14 -6c-2 0 -4 0 -7 -1c-15 0 -17 17 -7 37c1 2 1 5 2 7c7 14 17 37 31 45c17 9 29 10 38 3zM255 579l15 -3c9 -3 14 -10 15 -20c1 -16 0 -33 -1 -50c-4 -50 -10 -100 -12 -150
c-2 -39 -1 -78 -3 -117c-1 -34 3 -69 -1 -103c-1 -13 0 -27 2 -40c3 -20 -3 -40 0 -60c2 -9 -4 -16 -10 -22c-4 -3 -9 -6 -11 -11c-4 -7 -9 -7 -16 -5c-13 5 -23 15 -24 30c-3 44 -5 88 -4 132c0 28 1 56 2 84c0 13 -5 25 -9 36c-9 26 -17 52 -29 76c-15 31 -23 64 -43 96
c-1 -62 -1 -120 2 -179c2 -18 -1 -35 0 -53c0 -22 -2 -43 -1 -65c0 -27 -2 -53 -4 -80c-1 -3 -2 -6 -1 -9c1 -16 -3 -31 -10 -46c-3 -4 -6 -9 -5 -14c-9 -5 -19 -10 -28 -6c-1 0 -1 0 -2 1v2c-1 2 -3 3 -4 4c-15 12 -20 29 -21 46c-3 44 -2 87 0 131c0 17 -1 34 1 52
c1 20 1 41 1 61c-2 50 -1 99 4 148c3 24 3 49 9 73c2 9 1 18 0 27c-1 5 0 9 3 14c5 11 14 12 23 10c8 -1 15 -5 23 -6c3 0 4 -3 5 -5c3 -15 9 -28 6 -43c-1 -6 -2 -11 2 -16c8 -12 11 -26 19 -38c7 -11 12 -23 15 -36c6 -27 19 -51 29 -77c4 -9 5 -18 13 -27l3 48
c3 38 6 76 12 113c5 27 8 54 12 81c3 16 7 19 23 16z" />
    <glyph glyph-name="Ncaron" unicode="&#x147;" 
d="M91 734c8 -6 14 -12 20 -19l1 -1c19 -24 41 -45 59 -69c5 -5 5 -5 9 0c8 9 13 19 19 29c8 10 27 36 35 46c5 3 6 5 9 8c3 4 6 6 10 5c4 0 8 -3 5 -7c-4 -7 -5 -15 -12 -19c-4 -4 -17 -23 -20 -26c-9 -11 -19 -22 -24 -34c-2 -5 -6 -10 -12 -14l-14 -14
c-6 -8 -16 -9 -24 -9c-6 0 -8 1 -10 4c-8 12 -17 22 -28 33c-9 10 -17 20 -25 30c-7 7 -14 15 -20 24c-2 4 -4 7 0 11c3 5 6 9 10 14l6 7c2 0 4 1 6 1zM255 579l15 -3c9 -3 14 -10 15 -20c1 -16 0 -33 -1 -50c-4 -50 -10 -100 -12 -150c-2 -39 -1 -78 -3 -117
c-1 -34 3 -69 -1 -103c-1 -13 0 -27 2 -40c3 -20 -3 -40 0 -60c2 -9 -4 -16 -10 -22c-4 -3 -9 -6 -11 -11c-4 -7 -9 -7 -16 -5c-13 5 -23 15 -24 30c-3 44 -5 88 -4 132c0 28 1 56 2 84c0 13 -5 25 -9 36c-9 26 -17 52 -29 76c-15 31 -23 64 -43 96c-1 -62 -1 -120 2 -179
c2 -18 -1 -35 0 -53c0 -22 -2 -43 -1 -65c0 -27 -2 -53 -4 -80c-1 -3 -2 -6 -1 -9c1 -16 -3 -31 -10 -46c-3 -4 -6 -9 -5 -14c-9 -5 -19 -10 -28 -6c-1 0 -1 0 -2 1v2c-1 2 -3 3 -4 4c-15 12 -20 29 -21 46c-3 44 -2 87 0 131c0 17 -1 34 1 52c1 20 1 41 1 61
c-2 50 -1 99 4 148c3 24 3 49 9 73c2 9 1 18 0 27c-1 5 0 9 3 14c5 11 14 12 23 10c8 -1 15 -5 23 -6c3 0 4 -3 5 -5c3 -15 9 -28 6 -43c-1 -6 -2 -11 2 -16c8 -12 11 -26 19 -38c7 -11 12 -23 15 -36c6 -27 19 -51 29 -77c4 -9 5 -18 13 -27l3 48c3 38 6 76 12 113
c5 27 8 54 12 81c3 16 7 19 23 16z" />
    <glyph glyph-name="Ntilde" unicode="&#xd1;" 
d="M134 684c14 1 28 -5 41 -11c11 -7 19 -16 27 -25c8 -8 23 -9 33 -3c5 3 9 8 10 13c2 5 2 13 5 17c9 8 11 -9 11 -14c-1 -24 -20 -42 -42 -42c-4 1 -7 1 -10 2c-10 3 -17 10 -25 16c-5 3 -9 4 -13 6c-9 5 -18 7 -27 7c-16 1 -22 -9 -29 -23c-4 -8 -15 -18 -23 -12
c-8 5 -8 16 -6 25c4 13 10 21 17 31c9 8 20 12 31 13zM255 579l15 -3c9 -3 14 -10 15 -20c1 -16 0 -33 -1 -50c-4 -50 -10 -100 -12 -150c-2 -39 -1 -78 -3 -117c-1 -34 3 -69 -1 -103c-1 -13 0 -27 2 -40c3 -20 -3 -40 0 -60c2 -9 -4 -16 -10 -22c-4 -3 -9 -6 -11 -11
c-4 -7 -9 -7 -16 -5c-13 5 -23 15 -24 30c-3 44 -5 88 -4 132c0 28 1 56 2 84c0 13 -5 25 -9 36c-9 26 -17 52 -29 76c-15 31 -23 64 -43 96c-1 -62 -1 -120 2 -179c2 -18 -1 -35 0 -53c0 -22 -2 -43 -1 -65c0 -27 -2 -53 -4 -80c-1 -3 -2 -6 -1 -9c1 -16 -3 -31 -10 -46
c-3 -4 -6 -9 -5 -14c-9 -5 -19 -10 -28 -6c-1 0 -1 0 -2 1v2c-1 2 -3 3 -4 4c-15 12 -20 29 -21 46c-3 44 -2 87 0 131c0 17 -1 34 1 52c1 20 1 41 1 61c-2 50 -1 99 4 148c3 24 3 49 9 73c2 9 1 18 0 27c-1 5 0 9 3 14c5 11 14 12 23 10c8 -1 15 -5 23 -6c3 0 4 -3 5 -5
c3 -15 9 -28 6 -43c-1 -6 -2 -11 2 -16c8 -12 11 -26 19 -38c7 -11 12 -23 15 -36c6 -27 19 -51 29 -77c4 -9 5 -18 13 -27l3 48c3 38 6 76 12 113c5 27 8 54 12 81c3 16 7 19 23 16z" />
    <glyph glyph-name="O" unicode="O" 
d="M227 599c13 -5 25 -9 31 -25c2 -6 6 -12 9 -17l10 -25l6 -31c0 -16 1 -31 2 -47c1 -28 -1 -55 -2 -83c-2 -46 -10 -92 -17 -137l-13 -91c0 -28 -10 -53 -22 -78c-6 -10 -13 -20 -16 -31c-3 -8 -8 -13 -14 -15c-9 -3 -16 -7 -23 -11c-10 -6 -21 -5 -33 -6
c-9 0 -19 -1 -28 2c-25 7 -38 24 -45 47c-8 26 -13 53 -14 80c-1 14 -4 28 -5 42c-4 42 -4 84 0 127c4 41 7 82 13 122c6 41 16 81 37 118c6 10 12 20 23 27c7 6 15 12 22 19c23 21 50 24 79 13zM196 564c-8 -9 -14 -19 -19 -31c-6 -17 -17 -33 -22 -51
c-7 -23 -10 -47 -15 -71c-6 -32 -11 -63 -13 -95c-1 -23 -7 -45 -5 -68c2 -16 -3 -32 -2 -49c3 -31 2 -63 9 -91c-3 -22 4 -40 11 -58c4 -12 13 -20 26 -22s20 7 25 17c14 24 27 50 30 78c4 28 10 56 15 83c8 50 17 100 20 150c3 42 12 83 4 125v5c4 25 -4 48 -13 71
c-9 21 -35 25 -51 7z" />
    <glyph glyph-name="Oacute" unicode="&#xd3;" 
d="M253 722c4 -2 4 -9 -4 -26c-9 -19 -14 -35 -35 -56l-4 -3c-4 -2 -9 -5 -14 -6c-2 0 -4 0 -7 -1c-15 0 -17 17 -7 37c1 2 1 5 2 7c7 14 17 37 31 45c17 9 29 10 38 3zM227 599c13 -5 25 -9 31 -25c2 -6 6 -12 9 -17l10 -25l6 -31c0 -16 1 -31 2 -47c1 -28 -1 -55 -2 -83
c-2 -46 -10 -92 -17 -137l-13 -91c0 -28 -10 -53 -22 -78c-6 -10 -13 -20 -16 -31c-3 -8 -8 -13 -14 -15c-9 -3 -16 -7 -23 -11c-10 -6 -21 -5 -33 -6c-9 0 -19 -1 -28 2c-25 7 -38 24 -45 47c-8 26 -13 53 -14 80c-1 14 -4 28 -5 42c-4 42 -4 84 0 127c4 41 7 82 13 122
c6 41 16 81 37 118c6 10 12 20 23 27c7 6 15 12 22 19c23 21 50 24 79 13zM196 564c-8 -9 -14 -19 -19 -31c-6 -17 -17 -33 -22 -51c-7 -23 -10 -47 -15 -71c-6 -32 -11 -63 -13 -95c-1 -23 -7 -45 -5 -68c2 -16 -3 -32 -2 -49c3 -31 2 -63 9 -91c-3 -22 4 -40 11 -58
c4 -12 13 -20 26 -22s20 7 25 17c14 24 27 50 30 78c4 28 10 56 15 83c8 50 17 100 20 150c3 42 12 83 4 125v5c4 25 -4 48 -13 71c-9 21 -35 25 -51 7z" />
    <glyph glyph-name="Ocaron" unicode="&#x1d1;" 
d="M135 766c8 -6 14 -12 20 -19l1 -1c19 -24 41 -45 59 -69c5 -5 5 -5 9 0c8 9 13 19 19 29c8 10 27 36 35 46c5 3 6 5 9 8c3 4 6 6 10 5c4 0 8 -3 5 -7c-4 -7 -5 -15 -12 -19c-4 -4 -17 -23 -20 -26c-9 -11 -19 -22 -24 -34c-2 -5 -6 -10 -12 -14l-14 -14
c-6 -8 -16 -9 -24 -9c-6 0 -8 1 -10 4c-8 12 -17 22 -28 33c-9 10 -17 20 -25 30c-7 7 -14 15 -20 24c-2 4 -4 7 0 11c3 5 6 9 10 14l6 7c2 0 4 1 6 1zM227 599c13 -5 25 -9 31 -25c2 -6 6 -12 9 -17l10 -25l6 -31c0 -16 1 -31 2 -47c1 -28 -1 -55 -2 -83
c-2 -46 -10 -92 -17 -137l-13 -91c0 -28 -10 -53 -22 -78c-6 -10 -13 -20 -16 -31c-3 -8 -8 -13 -14 -15c-9 -3 -16 -7 -23 -11c-10 -6 -21 -5 -33 -6c-9 0 -19 -1 -28 2c-25 7 -38 24 -45 47c-8 26 -13 53 -14 80c-1 14 -4 28 -5 42c-4 42 -4 84 0 127c4 41 7 82 13 122
c6 41 16 81 37 118c6 10 12 20 23 27c7 6 15 12 22 19c23 21 50 24 79 13zM196 564c-8 -9 -14 -19 -19 -31c-6 -17 -17 -33 -22 -51c-7 -23 -10 -47 -15 -71c-6 -32 -11 -63 -13 -95c-1 -23 -7 -45 -5 -68c2 -16 -3 -32 -2 -49c3 -31 2 -63 9 -91c-3 -22 4 -40 11 -58
c4 -12 13 -20 26 -22s20 7 25 17c14 24 27 50 30 78c4 28 10 56 15 83c8 50 17 100 20 150c3 42 12 83 4 125v5c4 25 -4 48 -13 71c-9 21 -35 25 -51 7z" />
    <glyph glyph-name="Ocircumflex" unicode="&#xd4;" 
d="M201 747c6 0 8 -2 10 -5c7 -12 16 -23 26 -34c8 -10 16 -21 24 -32c6 -7 13 -15 18 -24c2 -4 3 -7 0 -11c-3 -5 -7 -9 -11 -14c-2 -2 -4 -5 -7 -7h-6c-7 6 -13 13 -18 20l-1 1c-18 25 -39 47 -56 72c-4 5 -4 5 -9 0c-8 -8 -14 -18 -21 -27c-7 -11 -28 -35 -37 -44
c-4 -3 -6 -6 -9 -9s-6 -5 -10 -4c-4 0 -8 4 -5 8c4 6 6 14 13 18c4 3 19 22 22 25c9 10 19 20 25 33c3 5 7 9 12 13s10 8 15 13c7 7 17 9 25 8zM227 599c13 -5 25 -9 31 -25c2 -6 6 -12 9 -17l10 -25l6 -31c0 -16 1 -31 2 -47c1 -28 -1 -55 -2 -83c-2 -46 -10 -92 -17 -137
l-13 -91c0 -28 -10 -53 -22 -78c-6 -10 -13 -20 -16 -31c-3 -8 -8 -13 -14 -15c-9 -3 -16 -7 -23 -11c-10 -6 -21 -5 -33 -6c-9 0 -19 -1 -28 2c-25 7 -38 24 -45 47c-8 26 -13 53 -14 80c-1 14 -4 28 -5 42c-4 42 -4 84 0 127c4 41 7 82 13 122c6 41 16 81 37 118
c6 10 12 20 23 27c7 6 15 12 22 19c23 21 50 24 79 13zM196 564c-8 -9 -14 -19 -19 -31c-6 -17 -17 -33 -22 -51c-7 -23 -10 -47 -15 -71c-6 -32 -11 -63 -13 -95c-1 -23 -7 -45 -5 -68c2 -16 -3 -32 -2 -49c3 -31 2 -63 9 -91c-3 -22 4 -40 11 -58c4 -12 13 -20 26 -22
s20 7 25 17c14 24 27 50 30 78c4 28 10 56 15 83c8 50 17 100 20 150c3 42 12 83 4 125v5c4 25 -4 48 -13 71c-9 21 -35 25 -51 7z" />
    <glyph glyph-name="Ocircumflexacute" unicode="&#x1ed0;" 
d="M251 838c4 -2 4 -9 -4 -26c-9 -19 -14 -35 -35 -56l-4 -3c-4 -2 -9 -5 -14 -6c-2 0 -4 0 -7 -1c-15 0 -17 17 -7 37c1 2 1 5 2 7c7 14 17 37 31 45c17 9 29 10 38 3zM212 719c6 0 8 -2 10 -5c7 -12 16 -23 26 -34c8 -10 16 -21 24 -32c6 -7 13 -15 18 -24
c2 -4 3 -7 0 -11c-3 -5 -7 -9 -11 -14c-2 -2 -4 -5 -7 -7h-6c-7 6 -13 13 -18 20l-1 1c-18 25 -39 47 -56 72c-4 5 -4 5 -9 0c-8 -8 -14 -18 -21 -27c-7 -11 -28 -35 -37 -44c-4 -3 -6 -6 -9 -9s-6 -5 -10 -4c-4 0 -8 4 -5 8c4 6 6 14 13 18c4 3 19 22 22 25
c9 10 19 20 25 33c3 5 7 9 12 13s10 8 15 13c7 7 17 9 25 8zM227 599c13 -5 25 -9 31 -25c2 -6 6 -12 9 -17l10 -25l6 -31c0 -16 1 -31 2 -47c1 -28 -1 -55 -2 -83c-2 -46 -10 -92 -17 -137l-13 -91c0 -28 -10 -53 -22 -78c-6 -10 -13 -20 -16 -31c-3 -8 -8 -13 -14 -15
c-9 -3 -16 -7 -23 -11c-10 -6 -21 -5 -33 -6c-9 0 -19 -1 -28 2c-25 7 -38 24 -45 47c-8 26 -13 53 -14 80c-1 14 -4 28 -5 42c-4 42 -4 84 0 127c4 41 7 82 13 122c6 41 16 81 37 118c6 10 12 20 23 27c7 6 15 12 22 19c23 21 50 24 79 13zM196 564c-8 -9 -14 -19 -19 -31
c-6 -17 -17 -33 -22 -51c-7 -23 -10 -47 -15 -71c-6 -32 -11 -63 -13 -95c-1 -23 -7 -45 -5 -68c2 -16 -3 -32 -2 -49c3 -31 2 -63 9 -91c-3 -22 4 -40 11 -58c4 -12 13 -20 26 -22s20 7 25 17c14 24 27 50 30 78c4 28 10 56 15 83c8 50 17 100 20 150c3 42 12 83 4 125v5
c4 25 -4 48 -13 71c-9 21 -35 25 -51 7z" />
    <glyph glyph-name="Ocircumflexgrave" unicode="&#x1ed2;" 
d="M183 851c3 -2 8 -2 10 -5c8 -11 20 -14 29 -22c7 -6 15 -11 21 -20c3 -5 8 -6 11 -9c5 -3 9 -8 15 -11c5 -2 6 -8 11 -11c2 -2 1 -5 -1 -6c-3 -2 -4 -5 -3 -9c1 -3 -2 -7 -3 -8c-4 -3 -4 -8 -5 -13c-1 -8 -12 -10 -18 -5l-27 27c-4 4 -9 8 -10 11c-2 5 -6 3 -8 6
c-2 4 -5 6 -8 10c-7 12 -18 22 -24 35c-4 7 -7 13 -5 20c1 5 2 11 7 10c3 0 5 -4 8 0zM208 725c6 0 8 -2 10 -5c7 -12 16 -23 26 -34c8 -10 16 -21 24 -32c6 -7 13 -15 18 -24c2 -4 3 -7 0 -11c-3 -5 -7 -9 -11 -14c-2 -2 -4 -5 -7 -7h-6c-7 6 -13 13 -18 20l-1 1
c-18 25 -39 47 -56 72c-4 5 -4 5 -9 0c-8 -8 -14 -18 -21 -27c-7 -11 -28 -35 -37 -44c-4 -3 -6 -6 -9 -9s-6 -5 -10 -4c-4 0 -8 4 -5 8c4 6 6 14 13 18c4 3 19 22 22 25c9 10 19 20 25 33c3 5 7 9 12 13s10 8 15 13c7 7 17 9 25 8zM227 599c13 -5 25 -9 31 -25
c2 -6 6 -12 9 -17l10 -25l6 -31c0 -16 1 -31 2 -47c1 -28 -1 -55 -2 -83c-2 -46 -10 -92 -17 -137l-13 -91c0 -28 -10 -53 -22 -78c-6 -10 -13 -20 -16 -31c-3 -8 -8 -13 -14 -15c-9 -3 -16 -7 -23 -11c-10 -6 -21 -5 -33 -6c-9 0 -19 -1 -28 2c-25 7 -38 24 -45 47
c-8 26 -13 53 -14 80c-1 14 -4 28 -5 42c-4 42 -4 84 0 127c4 41 7 82 13 122c6 41 16 81 37 118c6 10 12 20 23 27c7 6 15 12 22 19c23 21 50 24 79 13zM196 564c-8 -9 -14 -19 -19 -31c-6 -17 -17 -33 -22 -51c-7 -23 -10 -47 -15 -71c-6 -32 -11 -63 -13 -95
c-1 -23 -7 -45 -5 -68c2 -16 -3 -32 -2 -49c3 -31 2 -63 9 -91c-3 -22 4 -40 11 -58c4 -12 13 -20 26 -22s20 7 25 17c14 24 27 50 30 78c4 28 10 56 15 83c8 50 17 100 20 150c3 42 12 83 4 125v5c4 25 -4 48 -13 71c-9 21 -35 25 -51 7z" />
    <glyph glyph-name="Ocircumflextilde" unicode="&#x1ed6;" 
d="M161 823c14 1 28 -5 41 -11c11 -7 19 -16 27 -25c8 -8 23 -9 33 -3c5 3 9 8 10 13c2 5 2 13 5 17c9 8 11 -9 11 -14c-1 -24 -20 -42 -42 -42c-4 1 -7 1 -10 2c-10 3 -17 10 -25 16c-5 3 -9 4 -13 6c-9 5 -18 7 -27 7c-16 1 -22 -9 -29 -23c-4 -8 -15 -18 -23 -12
c-8 5 -8 16 -6 25c4 13 10 21 17 31c9 8 20 12 31 13zM215 736c6 0 8 -2 10 -5c7 -12 16 -23 26 -34c8 -10 16 -21 24 -32c6 -7 13 -15 18 -24c2 -4 3 -7 0 -11c-3 -5 -7 -9 -11 -14c-2 -2 -4 -5 -7 -7h-6c-7 6 -13 13 -18 20l-1 1c-18 25 -39 47 -56 72c-4 5 -4 5 -9 0
c-8 -8 -14 -18 -21 -27c-7 -11 -28 -35 -37 -44c-4 -3 -6 -6 -9 -9s-6 -5 -10 -4c-4 0 -8 4 -5 8c4 6 6 14 13 18c4 3 19 22 22 25c9 10 19 20 25 33c3 5 7 9 12 13s10 8 15 13c7 7 17 9 25 8zM227 599c13 -5 25 -9 31 -25c2 -6 6 -12 9 -17l10 -25l6 -31c0 -16 1 -31 2 -47
c1 -28 -1 -55 -2 -83c-2 -46 -10 -92 -17 -137l-13 -91c0 -28 -10 -53 -22 -78c-6 -10 -13 -20 -16 -31c-3 -8 -8 -13 -14 -15c-9 -3 -16 -7 -23 -11c-10 -6 -21 -5 -33 -6c-9 0 -19 -1 -28 2c-25 7 -38 24 -45 47c-8 26 -13 53 -14 80c-1 14 -4 28 -5 42c-4 42 -4 84 0 127
c4 41 7 82 13 122c6 41 16 81 37 118c6 10 12 20 23 27c7 6 15 12 22 19c23 21 50 24 79 13zM196 564c-8 -9 -14 -19 -19 -31c-6 -17 -17 -33 -22 -51c-7 -23 -10 -47 -15 -71c-6 -32 -11 -63 -13 -95c-1 -23 -7 -45 -5 -68c2 -16 -3 -32 -2 -49c3 -31 2 -63 9 -91
c-3 -22 4 -40 11 -58c4 -12 13 -20 26 -22s20 7 25 17c14 24 27 50 30 78c4 28 10 56 15 83c8 50 17 100 20 150c3 42 12 83 4 125v5c4 25 -4 48 -13 71c-9 21 -35 25 -51 7z" />
    <glyph glyph-name="Odieresis" unicode="&#xd6;" 
d="M132 689c10 10 25 6 26 -7c2 -9 8 -18 9 -28c0 -7 -4 -13 -4 -19c0 -2 0 -3 -2 -3c-5 2 -10 -6 -15 -2c-8 -1 -11 2 -15 7c-8 9 -13 17 -12 29c2 10 6 17 13 23zM222 689c9 10 24 6 26 -7c2 -9 8 -18 9 -28c1 -7 -4 -13 -3 -19c0 -2 -1 -3 -3 -3c-6 2 -10 -6 -15 -2
c-8 -1 -11 2 -15 7c-8 9 -12 17 -11 29c1 10 5 17 12 23zM227 599c13 -5 25 -9 31 -25c2 -6 6 -12 9 -17l10 -25l6 -31c0 -16 1 -31 2 -47c1 -28 -1 -55 -2 -83c-2 -46 -10 -92 -17 -137l-13 -91c0 -28 -10 -53 -22 -78c-6 -10 -13 -20 -16 -31c-3 -8 -8 -13 -14 -15
c-9 -3 -16 -7 -23 -11c-10 -6 -21 -5 -33 -6c-9 0 -19 -1 -28 2c-25 7 -38 24 -45 47c-8 26 -13 53 -14 80c-1 14 -4 28 -5 42c-4 42 -4 84 0 127c4 41 7 82 13 122c6 41 16 81 37 118c6 10 12 20 23 27c7 6 15 12 22 19c23 21 50 24 79 13zM196 564c-8 -9 -14 -19 -19 -31
c-6 -17 -17 -33 -22 -51c-7 -23 -10 -47 -15 -71c-6 -32 -11 -63 -13 -95c-1 -23 -7 -45 -5 -68c2 -16 -3 -32 -2 -49c3 -31 2 -63 9 -91c-3 -22 4 -40 11 -58c4 -12 13 -20 26 -22s20 7 25 17c14 24 27 50 30 78c4 28 10 56 15 83c8 50 17 100 20 150c3 42 12 83 4 125v5
c4 25 -4 48 -13 71c-9 21 -35 25 -51 7z" />
    <glyph glyph-name="Ograve" unicode="&#xd2;" 
d="M143 758c3 -2 8 -2 10 -5c8 -11 20 -14 29 -22c7 -6 15 -11 21 -20c3 -5 8 -6 11 -9c5 -3 9 -8 15 -11c5 -2 6 -8 11 -11c2 -2 1 -5 -1 -6c-3 -2 -4 -5 -3 -9c1 -3 -2 -7 -3 -8c-4 -3 -4 -8 -5 -13c-1 -8 -12 -10 -18 -5l-27 27c-4 4 -9 8 -10 11c-2 5 -6 3 -8 6
c-2 4 -5 6 -8 10c-7 12 -18 22 -24 35c-4 7 -7 13 -5 20c1 5 2 11 7 10c3 0 5 -4 8 0zM227 599c13 -5 25 -9 31 -25c2 -6 6 -12 9 -17l10 -25l6 -31c0 -16 1 -31 2 -47c1 -28 -1 -55 -2 -83c-2 -46 -10 -92 -17 -137l-13 -91c0 -28 -10 -53 -22 -78c-6 -10 -13 -20 -16 -31
c-3 -8 -8 -13 -14 -15c-9 -3 -16 -7 -23 -11c-10 -6 -21 -5 -33 -6c-9 0 -19 -1 -28 2c-25 7 -38 24 -45 47c-8 26 -13 53 -14 80c-1 14 -4 28 -5 42c-4 42 -4 84 0 127c4 41 7 82 13 122c6 41 16 81 37 118c6 10 12 20 23 27c7 6 15 12 22 19c23 21 50 24 79 13zM196 564
c-8 -9 -14 -19 -19 -31c-6 -17 -17 -33 -22 -51c-7 -23 -10 -47 -15 -71c-6 -32 -11 -63 -13 -95c-1 -23 -7 -45 -5 -68c2 -16 -3 -32 -2 -49c3 -31 2 -63 9 -91c-3 -22 4 -40 11 -58c4 -12 13 -20 26 -22s20 7 25 17c14 24 27 50 30 78c4 28 10 56 15 83
c8 50 17 100 20 150c3 42 12 83 4 125v5c4 25 -4 48 -13 71c-9 21 -35 25 -51 7z" />
    <glyph glyph-name="Ohungarumlaut" unicode="&#x150;" 
d="M184 736c4 1 9 2 10 -2c0 -2 -1 -4 2 -6c0 -3 1 -8 0 -9c-6 -10 -4 -20 -7 -30c-2 -7 -4 -15 -8 -23c-2 -4 -2 -8 -2 -11c-1 -5 -5 -10 -5 -15c0 -4 -3 -8 -5 -12c0 -2 -2 -3 -5 -1c-2 0 -5 1 -7 -1s-6 -2 -8 -1c-3 2 -7 0 -10 -1c-7 -1 -13 6 -11 12c4 11 8 20 12 30
c2 4 3 9 4 12c4 3 1 6 3 7c2 4 3 7 4 10c8 10 11 21 19 31c4 4 8 9 14 10zM279 733c4 1 8 2 10 -2c1 -1 -2 -5 1 -6c0 -4 2 -7 0 -10c-5 -10 -4 -19 -6 -29c-3 -6 -4 -15 -8 -23c-2 -3 -2 -8 -3 -11c-1 -5 -3 -9 -4 -15c0 -4 -4 -8 -5 -13c0 -1 -3 -1 -5 0c-3 0 -4 0 -7 -1
c-2 -2 -7 -2 -7 0c-5 1 -8 -1 -12 -2c-6 -1 -12 6 -9 13c3 10 6 20 11 30c1 4 3 8 5 11c2 4 0 5 1 8c3 2 4 6 4 9c8 11 12 22 20 31c4 4 7 10 14 10zM227 599c13 -5 25 -9 31 -25c2 -6 6 -12 9 -17l10 -25l6 -31c0 -16 1 -31 2 -47c1 -28 -1 -55 -2 -83
c-2 -46 -10 -92 -17 -137l-13 -91c0 -28 -10 -53 -22 -78c-6 -10 -13 -20 -16 -31c-3 -8 -8 -13 -14 -15c-9 -3 -16 -7 -23 -11c-10 -6 -21 -5 -33 -6c-9 0 -19 -1 -28 2c-25 7 -38 24 -45 47c-8 26 -13 53 -14 80c-1 14 -4 28 -5 42c-4 42 -4 84 0 127c4 41 7 82 13 122
c6 41 16 81 37 118c6 10 12 20 23 27c7 6 15 12 22 19c23 21 50 24 79 13zM196 564c-8 -9 -14 -19 -19 -31c-6 -17 -17 -33 -22 -51c-7 -23 -10 -47 -15 -71c-6 -32 -11 -63 -13 -95c-1 -23 -7 -45 -5 -68c2 -16 -3 -32 -2 -49c3 -31 2 -63 9 -91c-3 -22 4 -40 11 -58
c4 -12 13 -20 26 -22s20 7 25 17c14 24 27 50 30 78c4 28 10 56 15 83c8 50 17 100 20 150c3 42 12 83 4 125v5c4 25 -4 48 -13 71c-9 21 -35 25 -51 7z" />
    <glyph glyph-name="Omacron" unicode="&#x14c;" 
d="M264 690c8 -3 9 -13 18 -16c7 -14 -1 -15 -11 -21c-10 -1 -17 3 -26 3c-15 1 -30 -3 -45 -4c-87 -3 -121 -16 -116 16c2 13 89 -2 106 7c13 5 33 7 48 12c9 2 17 7 26 3zM227 599c13 -5 25 -9 31 -25c2 -6 6 -12 9 -17l10 -25l6 -31c0 -16 1 -31 2 -47
c1 -28 -1 -55 -2 -83c-2 -46 -10 -92 -17 -137l-13 -91c0 -28 -10 -53 -22 -78c-6 -10 -13 -20 -16 -31c-3 -8 -8 -13 -14 -15c-9 -3 -16 -7 -23 -11c-10 -6 -21 -5 -33 -6c-9 0 -19 -1 -28 2c-25 7 -38 24 -45 47c-8 26 -13 53 -14 80c-1 14 -4 28 -5 42c-4 42 -4 84 0 127
c4 41 7 82 13 122c6 41 16 81 37 118c6 10 12 20 23 27c7 6 15 12 22 19c23 21 50 24 79 13zM196 564c-8 -9 -14 -19 -19 -31c-6 -17 -17 -33 -22 -51c-7 -23 -10 -47 -15 -71c-6 -32 -11 -63 -13 -95c-1 -23 -7 -45 -5 -68c2 -16 -3 -32 -2 -49c3 -31 2 -63 9 -91
c-3 -22 4 -40 11 -58c4 -12 13 -20 26 -22s20 7 25 17c14 24 27 50 30 78c4 28 10 56 15 83c8 50 17 100 20 150c3 42 12 83 4 125v5c4 25 -4 48 -13 71c-9 21 -35 25 -51 7z" />
    <glyph glyph-name="Oslash" unicode="&#xd8;" 
d="M380 407c3 -9 -7 -24 -15 -24c-10 0 -15 -4 -22 -14c-11 -12 -22 -22 -33 -34l-34 -35c-3 -22 -7 -44 -10 -66l-13 -91c0 -28 -10 -53 -22 -78c-6 -10 -13 -20 -16 -31c-3 -8 -8 -13 -14 -15c-9 -3 -16 -7 -23 -11c-10 -6 -21 -5 -33 -6c-9 0 -19 -1 -28 2
c-25 7 -38 24 -45 47c-8 26 -13 53 -14 80c-1 14 -4 28 -5 42c-4 42 -4 84 0 127c4 41 7 82 13 122c6 41 16 81 37 118c6 10 12 20 23 27c7 6 15 12 22 19c23 21 50 24 79 13c13 -5 25 -9 31 -25c2 -6 6 -12 9 -17l10 -25l6 -31c0 -16 1 -31 2 -47c1 -28 -1 -55 -2 -83v-5
l48 48c1 1 3 3 5 4c4 3 8 6 14 8l27 -16c1 0 3 -2 3 -3zM122 248c2 -16 -3 -32 -2 -49l1 -7c11 12 21 26 33 38c74 77 84 90 101 107l1 19c3 42 12 83 4 125v5c4 25 -4 48 -13 71c-9 21 -35 25 -51 7c-8 -9 -14 -19 -19 -31c-6 -17 -17 -33 -22 -51c-7 -23 -10 -47 -15 -71
c-6 -32 -11 -63 -13 -95c-1 -23 -7 -45 -5 -68zM236 206l10 62c-30 -33 -57 -65 -92 -105c-2 -3 -5 -5 -8 -7c-8 -4 -11 -10 -15 -16c0 -1 -1 -2 -3 -4l-3 -3c1 -9 2 -17 4 -25c-3 -22 4 -40 11 -58c4 -12 13 -20 26 -22s20 7 25 17c14 24 27 50 30 78c4 28 10 56 15 83z
" />
    <glyph glyph-name="Otilde" unicode="&#xd5;" 
d="M143 694c14 1 28 -5 41 -11c11 -7 19 -16 27 -25c8 -8 23 -9 33 -3c5 3 9 8 10 13c2 5 2 13 5 17c9 8 11 -9 11 -14c-1 -24 -20 -42 -42 -42c-4 1 -7 1 -10 2c-10 3 -17 10 -25 16c-5 3 -9 4 -13 6c-9 5 -18 7 -27 7c-16 1 -22 -9 -29 -23c-4 -8 -15 -18 -23 -12
c-8 5 -8 16 -6 25c4 13 10 21 17 31c9 8 20 12 31 13zM227 599c13 -5 25 -9 31 -25c2 -6 6 -12 9 -17l10 -25l6 -31c0 -16 1 -31 2 -47c1 -28 -1 -55 -2 -83c-2 -46 -10 -92 -17 -137l-13 -91c0 -28 -10 -53 -22 -78c-6 -10 -13 -20 -16 -31c-3 -8 -8 -13 -14 -15
c-9 -3 -16 -7 -23 -11c-10 -6 -21 -5 -33 -6c-9 0 -19 -1 -28 2c-25 7 -38 24 -45 47c-8 26 -13 53 -14 80c-1 14 -4 28 -5 42c-4 42 -4 84 0 127c4 41 7 82 13 122c6 41 16 81 37 118c6 10 12 20 23 27c7 6 15 12 22 19c23 21 50 24 79 13zM196 564c-8 -9 -14 -19 -19 -31
c-6 -17 -17 -33 -22 -51c-7 -23 -10 -47 -15 -71c-6 -32 -11 -63 -13 -95c-1 -23 -7 -45 -5 -68c2 -16 -3 -32 -2 -49c3 -31 2 -63 9 -91c-3 -22 4 -40 11 -58c4 -12 13 -20 26 -22s20 7 25 17c14 24 27 50 30 78c4 28 10 56 15 83c8 50 17 100 20 150c3 42 12 83 4 125v5
c4 25 -4 48 -13 71c-9 21 -35 25 -51 7z" />
    <glyph glyph-name="OE" unicode="&#x152;" horiz-adv-x="434" 
d="M206 598c9 -4 16 -6 23 -12c30 -2 60 2 90 -1c15 -2 31 -1 47 1c9 2 34 -12 37 -21c3 -7 1 -11 -7 -13c-5 0 -10 -1 -16 0c-28 2 -56 4 -84 7c-3 0 -5 1 -8 1c-23 2 -22 2 -19 -20c4 -31 5 -63 4 -94c-1 -18 4 -33 9 -49c0 -15 -1 -31 0 -46c0 -24 3 -47 1 -70v-7
c-1 -8 2 -11 10 -11h28c4 -1 7 0 11 -1c5 0 9 -3 9 -8s-3 -8 -8 -9c-10 -2 -20 -6 -30 -3c-4 1 -9 2 -13 2c-6 0 -9 -2 -11 -9c-5 -27 -8 -55 -10 -82l-6 -60c-1 -13 -5 -25 -4 -38c0 -12 1 -14 13 -14h44c13 0 26 -1 39 0c11 0 20 -3 29 -10c4 -3 9 -5 6 -11
c-2 -6 -5 -10 -12 -11c-19 -2 -37 -3 -56 -1c-14 3 -30 5 -43 0c-21 -7 -40 -8 -61 -2c-2 1 -5 0 -8 0c-15 -4 -29 -1 -38 8c-5 -2 -10 -5 -15 -8c-10 -6 -21 -5 -32 -6c-9 0 -19 -1 -29 2c-24 7 -37 25 -44 47c-9 26 -14 53 -15 80c0 14 -4 28 -5 42c-3 42 -3 84 1 127
c3 41 6 82 13 123c6 41 15 81 37 117c6 10 12 20 22 27c8 6 15 12 23 19c23 21 49 24 78 14zM176 563c-8 -10 -15 -20 -19 -32c-7 -17 -17 -33 -22 -50c-7 -24 -11 -48 -15 -72c-6 -31 -12 -63 -13 -95c-1 -23 -7 -45 -5 -68c1 -16 -4 -32 -2 -48c3 -32 1 -63 8 -92
c-2 -22 5 -40 11 -58c5 -12 13 -19 26 -21s21 6 26 16c14 25 27 50 30 78c3 29 10 56 14 84c9 49 18 99 21 150c2 26 6 53 7 80c-2 39 -6 77 -15 115l-2 5c-8 22 -35 26 -50 8zM238 97v-41c6 13 4 27 3 40c-1 0 -2 1 -3 1z" />
    <glyph glyph-name="P" unicode="P" horiz-adv-x="342" 
d="M259 583c12 -2 20 -8 25 -18c7 -15 8 -31 8 -48c1 -31 -10 -59 -19 -88c-3 -10 -8 -19 -13 -28c-15 -31 -38 -75 -75 -84c-16 -4 -36 -4 -52 -3c-10 1 -13 0 -15 -10c-1 -6 0 -13 0 -19c0 -26 -4 -52 -4 -78c-1 -35 1 -69 -1 -104c-2 -26 2 -53 3 -79c1 -5 2 -10 -3 -14
c-10 -8 -22 -13 -35 -13c-15 0 -23 10 -24 26c-1 47 -5 95 -4 143c1 29 -2 57 1 86c3 41 7 81 9 122c2 38 8 76 13 114c3 22 7 43 11 64c1 10 6 18 15 21c21 8 43 -13 40 -36c-1 -14 -3 -27 -5 -40c11 14 23 27 34 41c24 28 51 48 91 45zM232 556c-13 -6 -24 -15 -34 -25
c-26 -28 -45 -61 -63 -94c-5 -7 -7 -16 -8 -24c-3 -18 -1 -35 -3 -52c-1 -13 0 -14 12 -14c5 1 9 3 14 6c13 8 25 18 34 31c8 9 18 16 24 26c12 19 23 38 30 58c9 22 15 45 17 69c0 2 1 3 0 5c0 18 -8 23 -23 14z" />
    <glyph glyph-name="Thorn" unicode="&#xde;" horiz-adv-x="302" 
d="M102 516c21 8 43 -13 40 -36c-1 -14 -26 -104 -28 -117c11 14 23 27 34 41c24 28 51 48 91 45c12 -2 20 -8 25 -18c7 -15 8 -31 8 -48c1 -31 -10 -59 -19 -88c-3 -10 -8 -19 -13 -28c-15 -31 -38 -75 -75 -84c-16 -4 -36 -4 -52 -3c-10 1 -13 0 -15 -10
c-1 -6 0 -13 0 -19l-5 -43c-2 -26 2 -53 3 -79c1 -5 2 -10 -3 -14c-10 -8 -22 -13 -35 -13c-15 0 -23 10 -24 26c-1 58 -5 85 -3 90c3 41 7 81 9 122c2 38 8 76 13 114c3 22 5 42 11 64c24 87 29 95 38 98zM212 422c-13 -6 -24 -15 -34 -25c-26 -28 -45 -61 -63 -94
c-5 -7 -7 -16 -8 -24c-3 -18 -1 -35 -3 -52c-1 -13 0 -14 12 -14c5 1 9 3 14 6c13 8 25 18 34 31c8 9 18 16 24 26c12 19 23 38 30 58c9 22 15 45 17 69c0 2 1 3 0 5c0 18 -8 23 -23 14z" />
    <glyph glyph-name="Q" unicode="Q" horiz-adv-x="310" 
d="M191 598c31 -8 38 -54 43 -82c4 -17 4 -34 5 -51c5 -54 -1 -108 -3 -162c-1 -29 -1 -57 -2 -85c1 -16 -3 -32 -2 -48c0 -31 -4 -60 -10 -90c-3 -14 1 -22 11 -29c18 -13 34 -27 48 -44c3 -4 6 -6 2 -11c-3 -4 -7 -7 -12 -5c-5 3 -9 6 -13 8c-14 10 -27 20 -38 34
c-7 7 -12 7 -16 -2c-10 -17 -27 -22 -45 -24c-8 -1 -16 1 -24 1c-34 5 -52 29 -62 58c-11 33 -19 67 -20 102c-6 36 -2 71 -2 106c0 32 0 62 4 91c6 50 10 102 27 152c6 19 20 57 37 71c16 14 51 17 72 10zM160 572c-17 -13 -17 -46 -19 -64c-14 -95 -21 -189 -26 -286
c-1 -31 -1 -63 5 -94c1 -10 1 -19 2 -29c-2 -20 3 -38 16 -54c8 -11 20 -16 34 -12c9 1 14 7 16 15c4 8 -2 13 -9 17c-3 2 -5 5 -9 7c-7 2 -10 9 -15 13c-3 3 -4 6 -2 8c2 3 6 4 9 3l10 -4c7 -5 14 -9 23 -14c6 26 7 52 9 77c2 46 2 92 2 138c-1 53 4 107 8 159
c2 35 -1 69 -11 103c-2 19 -28 29 -43 17z" />
    <glyph glyph-name="R" unicode="R" horiz-adv-x="330" 
d="M65 569c15 3 28 0 38 -13c6 -8 7 -16 7 -25c0 -17 6 -34 5 -51c-1 -3 0 -7 5 -9c10 13 17 30 30 41c6 5 11 11 17 15c27 21 72 21 96 2c6 -5 11 -11 10 -19c0 -4 2 -8 3 -11c3 -15 2 -28 -5 -41c-8 -16 -13 -34 -23 -49c-12 -18 -22 -37 -41 -49c-5 -3 -8 -7 -10 -12
s-2 -9 2 -13c17 -16 24 -37 31 -59c5 -18 10 -37 12 -57c3 -28 12 -55 13 -84c2 -30 5 -60 21 -87c6 -11 16 -20 26 -28c9 -9 14 -7 22 4c3 4 5 9 7 13c2 2 5 5 9 3c2 -2 3 -4 3 -7c0 -19 -22 -37 -41 -36c-38 3 -76 40 -82 80c-7 39 -10 79 -19 117c-2 8 -2 15 -3 23
c-1 25 -10 49 -20 71c-4 9 -5 18 -12 25c-4 4 -7 7 -15 4c-17 -6 -33 10 -30 28c3 12 8 25 19 31c18 10 30 27 40 44c14 24 30 47 38 75c1 4 2 8 2 13c1 10 -4 14 -14 11c-17 -5 -31 -17 -42 -30c-14 -15 -23 -35 -35 -53c-19 -28 -20 -64 -22 -97c-4 -61 -15 -126 -10 -188
c3 -33 -3 -66 3 -99c3 -13 -6 -25 -7 -38c0 0 0 -1 -1 -1c-13 -7 -23 -19 -40 -17c-8 1 -13 5 -18 12c-11 15 -13 32 -15 49c-5 48 -9 96 -7 145c3 45 6 90 12 134c2 23 4 46 4 68c1 30 4 60 9 89c4 20 7 40 11 60c2 12 4 13 17 16z" />
    <glyph glyph-name="Racute" unicode="&#x154;" horiz-adv-x="330" 
d="M211 632c4 -2 4 -9 -4 -26c-9 -19 -14 -35 -35 -56l-4 -3c-4 -2 -9 -5 -14 -6c-2 0 -4 0 -7 -1c-15 0 -17 17 -7 37c1 2 1 5 2 7c7 14 17 37 31 45c17 9 29 10 38 3zM65 569c15 3 28 0 38 -13c6 -8 7 -16 7 -25c0 -17 6 -34 5 -51c-1 -3 0 -7 5 -9c10 13 17 30 30 41
c6 5 11 11 17 15c27 21 72 21 96 2c6 -5 11 -11 10 -19c0 -4 2 -8 3 -11c3 -15 2 -28 -5 -41c-8 -16 -13 -34 -23 -49c-12 -18 -22 -37 -41 -49c-5 -3 -8 -7 -10 -12s-2 -9 2 -13c17 -16 24 -37 31 -59c5 -18 10 -37 12 -57c3 -28 12 -55 13 -84c2 -30 5 -60 21 -87
c6 -11 16 -20 26 -28c9 -9 14 -7 22 4c3 4 5 9 7 13c2 2 5 5 9 3c2 -2 3 -4 3 -7c0 -19 -22 -37 -41 -36c-38 3 -76 40 -82 80c-7 39 -10 79 -19 117c-2 8 -2 15 -3 23c-1 25 -10 49 -20 71c-4 9 -5 18 -12 25c-4 4 -7 7 -15 4c-17 -6 -33 10 -30 28c3 12 8 25 19 31
c18 10 30 27 40 44c14 24 30 47 38 75c1 4 2 8 2 13c1 10 -4 14 -14 11c-17 -5 -31 -17 -42 -30c-14 -15 -23 -35 -35 -53c-19 -28 -20 -64 -22 -97c-4 -61 -15 -126 -10 -188c3 -33 -3 -66 3 -99c3 -13 -6 -25 -7 -38c0 0 0 -1 -1 -1c-13 -7 -23 -19 -40 -17
c-8 1 -13 5 -18 12c-11 15 -13 32 -15 49c-5 48 -9 96 -7 145c3 45 6 90 12 134c2 23 4 46 4 68c1 30 4 60 9 89c4 20 7 40 11 60c2 12 4 13 17 16z" />
    <glyph glyph-name="Rcaron" unicode="&#x158;" horiz-adv-x="330" 
d="M86 735c8 -6 14 -12 20 -19l1 -1c19 -24 41 -45 59 -69c5 -5 5 -5 9 0c8 9 13 19 19 29c8 10 27 36 35 46c5 3 6 5 9 8c3 4 6 6 10 5c4 0 8 -3 5 -7c-4 -7 -5 -15 -12 -19c-4 -4 -17 -23 -20 -26c-9 -11 -19 -22 -24 -34c-2 -5 -6 -10 -12 -14l-14 -14
c-6 -8 -16 -9 -24 -9c-6 0 -8 1 -10 4c-8 12 -17 22 -28 33c-9 10 -17 20 -25 30c-7 7 -14 15 -20 24c-2 4 -4 7 0 11c3 5 6 9 10 14l6 7c2 0 4 1 6 1zM65 569c15 3 28 0 38 -13c6 -8 7 -16 7 -25c0 -17 6 -34 5 -51c-1 -3 0 -7 5 -9c10 13 17 30 30 41c6 5 11 11 17 15
c27 21 72 21 96 2c6 -5 11 -11 10 -19c0 -4 2 -8 3 -11c3 -15 2 -28 -5 -41c-8 -16 -13 -34 -23 -49c-12 -18 -22 -37 -41 -49c-5 -3 -8 -7 -10 -12s-2 -9 2 -13c17 -16 24 -37 31 -59c5 -18 10 -37 12 -57c3 -28 12 -55 13 -84c2 -30 5 -60 21 -87c6 -11 16 -20 26 -28
c9 -9 14 -7 22 4c3 4 5 9 7 13c2 2 5 5 9 3c2 -2 3 -4 3 -7c0 -19 -22 -37 -41 -36c-38 3 -76 40 -82 80c-7 39 -10 79 -19 117c-2 8 -2 15 -3 23c-1 25 -10 49 -20 71c-4 9 -5 18 -12 25c-4 4 -7 7 -15 4c-17 -6 -33 10 -30 28c3 12 8 25 19 31c18 10 30 27 40 44
c14 24 30 47 38 75c1 4 2 8 2 13c1 10 -4 14 -14 11c-17 -5 -31 -17 -42 -30c-14 -15 -23 -35 -35 -53c-19 -28 -20 -64 -22 -97c-4 -61 -15 -126 -10 -188c3 -33 -3 -66 3 -99c3 -13 -6 -25 -7 -38c0 0 0 -1 -1 -1c-13 -7 -23 -19 -40 -17c-8 1 -13 5 -18 12
c-11 15 -13 32 -15 49c-5 48 -9 96 -7 145c3 45 6 90 12 134c2 23 4 46 4 68c1 30 4 60 9 89c4 20 7 40 11 60c2 12 4 13 17 16z" />
    <glyph glyph-name="S" unicode="S" horiz-adv-x="306" 
d="M126 590c22 12 71 8 89 -10l19 -19c26 -25 17 -63 5 -82c-3 -4 -7 -7 -12 -5c-6 2 -9 6 -8 12l5 26c4 17 -2 32 -14 44c-1 1 -2 2 -2 3c-41 42 -85 -45 -84 -80c0 -23 3 -45 9 -67c4 -17 11 -32 25 -43c32 -25 65 -53 81 -91c17 -40 16 -98 -1 -138c-3 -8 -2 -17 -7 -25
c-27 -46 -72 -159 -144 -103c-28 22 -39 52 -39 87c0 6 -1 13 0 19c0 6 2 12 5 18s8 8 14 7c7 -2 8 -8 7 -14c-7 -39 -2 -59 18 -93c16 -29 39 9 43 24c13 48 32 97 38 148c6 42 -2 98 -43 121c-22 13 -42 27 -57 48c-21 29 -28 61 -25 97c3 26 13 51 27 73
c12 18 32 34 51 43z" />
    <glyph glyph-name="Sacute" unicode="&#x15a;" horiz-adv-x="306" 
d="M243 719c4 -2 4 -9 -4 -26c-9 -19 -14 -35 -35 -56l-4 -3c-4 -2 -9 -5 -14 -6c-2 0 -4 0 -7 -1c-15 0 -17 17 -7 37c1 2 1 5 2 7c7 14 17 37 31 45c17 9 29 10 38 3zM126 590c22 12 71 8 89 -10l19 -19c26 -25 17 -63 5 -82c-3 -4 -7 -7 -12 -5c-6 2 -9 6 -8 12l5 26
c4 17 -2 32 -14 44c-1 1 -2 2 -2 3c-41 42 -85 -45 -84 -80c0 -23 3 -45 9 -67c4 -17 11 -32 25 -43c32 -25 65 -53 81 -91c17 -40 16 -98 -1 -138c-3 -8 -2 -17 -7 -25c-27 -46 -72 -159 -144 -103c-28 22 -39 52 -39 87c0 6 -1 13 0 19c0 6 2 12 5 18s8 8 14 7
c7 -2 8 -8 7 -14c-7 -39 -2 -59 18 -93c16 -29 39 9 43 24c13 48 32 97 38 148c6 42 -2 98 -43 121c-22 13 -42 27 -57 48c-21 29 -28 61 -25 97c3 26 13 51 27 73c12 18 32 34 51 43z" />
    <glyph glyph-name="Scaron" unicode="&#x160;" horiz-adv-x="306" 
d="M120 761c8 -6 14 -12 20 -19l1 -1c19 -24 41 -45 59 -69c5 -5 5 -5 9 0c8 9 13 19 19 29c8 10 27 36 35 46c5 3 6 5 9 8c3 4 6 6 10 5c4 0 8 -3 5 -7c-4 -7 -5 -15 -12 -19c-4 -4 -17 -23 -20 -26c-9 -11 -19 -22 -24 -34c-2 -5 -6 -10 -12 -14l-14 -14
c-6 -8 -16 -9 -24 -9c-6 0 -8 1 -10 4c-8 12 -17 22 -28 33c-9 10 -17 20 -25 30c-7 7 -14 15 -20 24c-2 4 -4 7 0 11c3 5 6 9 10 14l6 7c2 0 4 1 6 1zM126 590c22 12 71 8 89 -10l19 -19c26 -25 17 -63 5 -82c-3 -4 -7 -7 -12 -5c-6 2 -9 6 -8 12l5 26c4 17 -2 32 -14 44
c-1 1 -2 2 -2 3c-41 42 -85 -45 -84 -80c0 -23 3 -45 9 -67c4 -17 11 -32 25 -43c32 -25 65 -53 81 -91c17 -40 16 -98 -1 -138c-3 -8 -2 -17 -7 -25c-27 -46 -72 -159 -144 -103c-28 22 -39 52 -39 87c0 6 -1 13 0 19c0 6 2 12 5 18s8 8 14 7c7 -2 8 -8 7 -14
c-7 -39 -2 -59 18 -93c16 -29 39 9 43 24c13 48 32 97 38 148c6 42 -2 98 -43 121c-22 13 -42 27 -57 48c-21 29 -28 61 -25 97c3 26 13 51 27 73c12 18 32 34 51 43z" />
    <glyph glyph-name="Scedilla" unicode="&#x15e;" horiz-adv-x="306" 
d="M239 278c17 -40 16 -98 -1 -138c-3 -8 -2 -17 -7 -25c-21 -37 -54 -116 -103 -118c-1 -14 -3 -29 -5 -44c0 -3 0 -6 -1 -8c0 -3 -2 -6 1 -6c2 -1 5 1 7 2c18 10 38 12 60 5c13 -4 26 -9 32 -22c6 -12 -1 -34 -14 -42c-4 -4 -6 -9 -8 -13c-1 -4 -4 -8 -5 -14
c0 -2 -3 -5 -6 -8c-11 -12 -27 -17 -43 -21c-4 -1 -8 0 -11 0c-8 2 -16 3 -24 5c-8 3 -13 10 -15 16c-3 7 -6 13 -5 20c1 2 1 4 4 5s4 -1 5 -2c6 -4 8 -9 9 -15c0 -2 1 -4 1 -5c6 -10 16 -11 25 -4c10 9 18 18 26 28c10 12 12 25 9 39c-2 5 -6 8 -14 8c-14 0 -26 -4 -36 -14
c-4 -3 -10 -4 -13 -8c0 -2 -4 -2 -5 -1c-5 4 -12 6 -14 12c0 1 0 2 -1 3c-15 15 -9 33 -7 50c2 15 6 31 10 47l-3 2c-28 22 -39 52 -39 87c0 6 -1 13 0 19c0 6 2 12 5 18s8 8 14 7c7 -2 8 -8 7 -14c-7 -39 -2 -59 18 -93c3 -6 7 -9 11 -10l3 -1c13 0 26 24 29 35
c13 48 32 97 38 148c6 42 -2 98 -43 121c-22 13 -42 27 -57 48c-21 29 -28 61 -25 97c3 26 13 51 27 73c12 18 32 34 51 43c22 12 71 8 89 -10l19 -19c26 -25 17 -63 5 -82c-3 -4 -7 -7 -12 -5c-6 2 -9 6 -8 12l5 26c4 17 -2 32 -14 44c-1 1 -2 2 -2 3
c-41 42 -85 -45 -84 -80c0 -23 3 -45 9 -67c4 -17 11 -32 25 -43c32 -25 65 -53 81 -91z" />
    <glyph glyph-name="T" unicode="T" horiz-adv-x="281" 
d="M178 591c15 1 29 0 43 -4c13 -4 14 -13 6 -22c-9 -8 -19 -8 -29 -8c-22 -1 -23 -1 -17 -22c3 -10 4 -19 2 -29c-2 -7 -2 -14 -1 -21c2 -14 1 -28 -1 -42c-3 -25 -3 -50 -6 -74c-2 -16 2 -31 -1 -47c-1 -7 -1 -15 -4 -22c-4 -13 -6 -26 -6 -40c1 -13 2 -27 -4 -40
c-1 -2 -1 -5 0 -8c2 -35 -2 -70 -2 -105c0 -23 0 -46 1 -68c0 -29 -22 -43 -48 -41c-11 0 -24 15 -25 29c0 10 1 20 1 30c0 12 -2 23 -2 34c-1 27 0 55 1 82c2 41 1 82 7 123c3 13 2 28 3 42c2 25 2 49 4 74c1 11 -1 22 0 32c2 32 3 64 3 96c0 21 3 17 -20 20
c-4 1 -9 0 -13 -1c-5 -1 -10 1 -14 4c-9 6 -8 14 1 20c5 3 10 4 14 4c15 1 30 4 44 2c21 -2 42 0 63 2z" />
    <glyph glyph-name="Tbar" unicode="&#x166;" horiz-adv-x="281" 
d="M235 384c7 -14 -1 -15 -11 -21c-10 -1 -17 3 -26 3c-8 1 -16 0 -24 -1c-1 -15 2 -28 0 -43c-1 -7 -1 -15 -4 -22c-4 -13 -6 -26 -6 -40c1 -13 2 -27 -4 -40c-1 -2 -1 -5 0 -8c2 -35 -2 -70 -2 -105c0 -23 0 -46 1 -68c0 -29 -22 -43 -48 -41c-11 0 -24 15 -25 29
c0 10 1 20 1 30c0 12 -2 23 -2 34c-1 27 0 55 1 82c2 41 1 82 7 123c3 13 2 28 3 42l1 21c-46 -4 -64 -5 -60 19c1 8 32 6 61 4l2 30c1 11 -1 22 0 32c2 32 3 64 3 96c0 21 3 17 -20 20c-4 1 -9 0 -13 -1c-5 -1 -10 1 -14 4c-9 6 -8 14 1 20c5 3 10 4 14 4c15 1 30 4 44 2
c21 -2 42 0 63 2c15 1 29 0 43 -4c13 -4 14 -13 6 -22c-9 -8 -19 -8 -29 -8c-22 -1 -23 -1 -17 -22c3 -10 4 -19 2 -29c-2 -7 -2 -14 -1 -21c2 -14 1 -28 -1 -42c-2 -17 -3 -33 -4 -50l14 4c9 2 17 7 26 3c8 -3 9 -13 18 -16z" />
    <glyph glyph-name="Tcaron" unicode="&#x164;" horiz-adv-x="281" 
d="M66 748c8 -6 14 -12 20 -19l1 -1c19 -24 41 -45 59 -69c5 -5 5 -5 9 0c8 9 13 19 19 29c8 10 27 36 35 46c5 3 6 5 9 8c3 4 6 6 10 5c4 0 8 -3 5 -7c-4 -7 -5 -15 -12 -19c-4 -4 -17 -23 -20 -26c-9 -11 -19 -22 -24 -34c-2 -5 -6 -10 -12 -14l-14 -14
c-6 -8 -16 -9 -24 -9c-6 0 -8 1 -10 4c-8 12 -17 22 -28 33c-9 10 -17 20 -25 30c-7 7 -14 15 -20 24c-2 4 -4 7 0 11c3 5 6 9 10 14l6 7c2 0 4 1 6 1zM178 591c15 1 29 0 43 -4c13 -4 14 -13 6 -22c-9 -8 -19 -8 -29 -8c-22 -1 -23 -1 -17 -22c3 -10 4 -19 2 -29
c-2 -7 -2 -14 -1 -21c2 -14 1 -28 -1 -42c-3 -25 -3 -50 -6 -74c-2 -16 2 -31 -1 -47c-1 -7 -1 -15 -4 -22c-4 -13 -6 -26 -6 -40c1 -13 2 -27 -4 -40c-1 -2 -1 -5 0 -8c2 -35 -2 -70 -2 -105c0 -23 0 -46 1 -68c0 -29 -22 -43 -48 -41c-11 0 -24 15 -25 29c0 10 1 20 1 30
c0 12 -2 23 -2 34c-1 27 0 55 1 82c2 41 1 82 7 123c3 13 2 28 3 42c2 25 2 49 4 74c1 11 -1 22 0 32c2 32 3 64 3 96c0 21 3 17 -20 20c-4 1 -9 0 -13 -1c-5 -1 -10 1 -14 4c-9 6 -8 14 1 20c5 3 10 4 14 4c15 1 30 4 44 2c21 -2 42 0 63 2z" />
    <glyph glyph-name="Tcedilla" unicode="&#x162;" horiz-adv-x="281" 
d="M238 -73c6 -12 -1 -34 -14 -42c-4 -4 -6 -9 -8 -13c-1 -4 -4 -8 -5 -14c0 -2 -3 -5 -6 -8c-11 -12 -27 -17 -43 -21c-4 -1 -8 0 -11 0c-8 2 -16 3 -24 5c-8 3 -13 10 -15 16c-3 7 -6 13 -5 20c1 2 1 4 4 5s4 -1 5 -2c6 -4 8 -9 9 -15c0 -2 1 -4 1 -5c6 -10 16 -11 25 -4
c10 9 18 18 26 28c10 12 12 25 9 39c-2 5 -6 8 -14 8c-14 0 -26 -4 -36 -14c-4 -3 -10 -4 -13 -8c0 -2 -4 -2 -5 -1c-5 4 -12 6 -14 12c0 1 0 2 -1 3c-15 15 -9 33 -7 50c1 11 4 23 7 34c-9 5 -16 16 -17 27c0 10 1 20 1 30c0 12 -2 23 -2 34c-1 27 0 55 1 82
c2 41 1 82 7 123c3 13 2 28 3 42c2 25 2 49 4 74c1 11 -1 22 0 32c2 32 3 64 3 96c0 21 3 17 -20 20c-4 1 -9 0 -13 -1c-5 -1 -10 1 -14 4c-9 6 -8 14 1 20c5 3 10 4 14 4c15 1 30 4 44 2c21 -2 42 0 63 2c15 1 29 0 43 -4c13 -4 14 -13 6 -22c-9 -8 -19 -8 -29 -8
c-22 -1 -23 -1 -17 -22c3 -10 4 -19 2 -29c-2 -7 -2 -14 -1 -21c2 -14 1 -28 -1 -42c-3 -25 -3 -50 -6 -74c-2 -16 2 -31 -1 -47c-1 -7 -1 -15 -4 -22c-4 -13 -6 -26 -6 -40c1 -13 2 -27 -4 -40c-1 -2 -1 -5 0 -8c2 -35 -2 -70 -2 -105c0 -23 0 -46 1 -68
c0 -15 -6 -26 -15 -33v-4c-1 -14 -3 -30 -5 -46c0 -3 0 -6 -1 -8c0 -3 -2 -6 1 -6c2 -1 5 1 7 2c18 10 38 12 60 5c13 -4 26 -9 32 -22z" />
    <glyph glyph-name="U" unicode="U" horiz-adv-x="366" 
d="M95 582c26 10 73 -8 66 -42c-6 -28 -4 -56 -4 -84c-1 -59 -21 -116 -22 -174c-1 -27 -2 -54 -2 -80c-1 -34 -1 -68 4 -101c2 -20 10 -57 29 -68c32 -17 64 -11 81 23c12 23 14 50 18 76c4 28 5 56 8 85c4 34 5 69 7 104c4 51 9 102 8 153c-1 19 -3 39 -5 58
c-1 4 -1 9 -1 13c0 13 3 16 14 17c9 1 14 -3 16 -15c4 -27 5 -56 2 -84c-3 -34 -2 -68 -3 -102c-1 -31 -8 -61 -8 -92c-1 -44 -3 -88 -11 -131c-2 -13 -5 -25 -8 -38c-4 -14 -8 -27 -11 -41c-6 -31 -34 -57 -63 -61c-26 -4 -68 -4 -87 17c-5 6 -9 10 -12 15
c-21 23 -30 52 -37 80c-10 39 -21 77 -23 117c-2 38 -2 77 1 115c2 19 4 38 4 57c0 26 4 52 8 78c2 8 2 17 3 26c2 20 4 42 12 62c4 10 5 13 16 17z" />
    <glyph glyph-name="Uacute" unicode="&#xda;" horiz-adv-x="366" 
d="M258 710c4 -2 4 -9 -4 -26c-9 -19 -14 -35 -35 -56l-4 -3c-4 -2 -9 -5 -14 -6c-2 0 -4 0 -7 -1c-15 0 -17 17 -7 37c1 2 1 5 2 7c7 14 17 37 31 45c17 9 29 10 38 3zM95 582c26 10 73 -8 66 -42c-6 -28 -4 -56 -4 -84c-1 -59 -21 -116 -22 -174c-1 -27 -2 -54 -2 -80
c-1 -34 -1 -68 4 -101c2 -20 10 -57 29 -68c32 -17 64 -11 81 23c12 23 14 50 18 76c4 28 5 56 8 85c4 34 5 69 7 104c4 51 9 102 8 153c-1 19 -3 39 -5 58c-1 4 -1 9 -1 13c0 13 3 16 14 17c9 1 14 -3 16 -15c4 -27 5 -56 2 -84c-3 -34 -2 -68 -3 -102
c-1 -31 -8 -61 -8 -92c-1 -44 -3 -88 -11 -131c-2 -13 -5 -25 -8 -38c-4 -14 -8 -27 -11 -41c-6 -31 -34 -57 -63 -61c-26 -4 -68 -4 -87 17c-5 6 -9 10 -12 15c-21 23 -30 52 -37 80c-10 39 -21 77 -23 117c-2 38 -2 77 1 115c2 19 4 38 4 57c0 26 4 52 8 78c2 8 2 17 3 26
c2 20 4 42 12 62c4 10 5 13 16 17z" />
    <glyph glyph-name="Ucaron" unicode="&#x1d3;" horiz-adv-x="366" 
d="M150 712c8 -6 14 -12 20 -19l1 -1c19 -24 41 -45 59 -69c5 -5 5 -5 9 0c8 9 13 19 19 29c8 10 27 36 35 46c5 3 6 5 9 8c3 4 6 6 10 5c4 0 8 -3 5 -7c-4 -7 -5 -15 -12 -19c-4 -4 -17 -23 -20 -26c-9 -11 -19 -22 -24 -34c-2 -5 -6 -10 -12 -14l-14 -14
c-6 -8 -16 -9 -24 -9c-6 0 -8 1 -10 4c-8 12 -17 22 -28 33c-9 10 -17 20 -25 30c-7 7 -14 15 -20 24c-2 4 -4 7 0 11c3 5 6 9 10 14l6 7c2 0 4 1 6 1zM95 582c26 10 73 -8 66 -42c-6 -28 -4 -56 -4 -84c-1 -59 -21 -116 -22 -174c-1 -27 -2 -54 -2 -80
c-1 -34 -1 -68 4 -101c2 -20 10 -57 29 -68c32 -17 64 -11 81 23c12 23 14 50 18 76c4 28 5 56 8 85c4 34 5 69 7 104c4 51 9 102 8 153c-1 19 -3 39 -5 58c-1 4 -1 9 -1 13c0 13 3 16 14 17c9 1 14 -3 16 -15c4 -27 5 -56 2 -84c-3 -34 -2 -68 -3 -102
c-1 -31 -8 -61 -8 -92c-1 -44 -3 -88 -11 -131c-2 -13 -5 -25 -8 -38c-4 -14 -8 -27 -11 -41c-6 -31 -34 -57 -63 -61c-26 -4 -68 -4 -87 17c-5 6 -9 10 -12 15c-21 23 -30 52 -37 80c-10 39 -21 77 -23 117c-2 38 -2 77 1 115c2 19 4 38 4 57c0 26 4 52 8 78c2 8 2 17 3 26
c2 20 4 42 12 62c4 10 5 13 16 17z" />
    <glyph glyph-name="Ucircumflex" unicode="&#xdb;" horiz-adv-x="366" 
d="M229 756c6 0 8 -2 10 -5c7 -12 16 -23 26 -34c8 -10 16 -21 24 -32c6 -7 13 -15 18 -24c2 -4 3 -7 0 -11c-3 -5 -7 -9 -11 -14c-2 -2 -4 -5 -7 -7h-6c-7 6 -13 13 -18 20l-1 1c-18 25 -39 47 -56 72c-4 5 -4 5 -9 0c-8 -8 -14 -18 -21 -27c-7 -11 -28 -35 -37 -44
c-4 -3 -6 -6 -9 -9s-6 -5 -10 -4c-4 0 -8 4 -5 8c4 6 6 14 13 18c4 3 19 22 22 25c9 10 19 20 25 33c3 5 7 9 12 13s10 8 15 13c7 7 17 9 25 8zM95 582c26 10 73 -8 66 -42c-6 -28 -4 -56 -4 -84c-1 -59 -21 -116 -22 -174c-1 -27 -2 -54 -2 -80c-1 -34 -1 -68 4 -101
c2 -20 10 -57 29 -68c32 -17 64 -11 81 23c12 23 14 50 18 76c4 28 5 56 8 85c4 34 5 69 7 104c4 51 9 102 8 153c-1 19 -3 39 -5 58c-1 4 -1 9 -1 13c0 13 3 16 14 17c9 1 14 -3 16 -15c4 -27 5 -56 2 -84c-3 -34 -2 -68 -3 -102c-1 -31 -8 -61 -8 -92
c-1 -44 -3 -88 -11 -131c-2 -13 -5 -25 -8 -38c-4 -14 -8 -27 -11 -41c-6 -31 -34 -57 -63 -61c-26 -4 -68 -4 -87 17c-5 6 -9 10 -12 15c-21 23 -30 52 -37 80c-10 39 -21 77 -23 117c-2 38 -2 77 1 115c2 19 4 38 4 57c0 26 4 52 8 78c2 8 2 17 3 26c2 20 4 42 12 62
c4 10 5 13 16 17z" />
    <glyph glyph-name="Udieresis" unicode="&#xdc;" horiz-adv-x="366" 
d="M158 665c10 10 25 6 26 -7c2 -9 8 -18 9 -28c0 -7 -4 -13 -4 -19c0 -2 0 -3 -2 -3c-5 2 -10 -6 -15 -2c-8 -1 -11 2 -15 7c-8 9 -13 17 -12 29c2 10 6 17 13 23zM248 665c9 10 24 6 26 -7c2 -9 8 -18 9 -28c1 -7 -4 -13 -3 -19c0 -2 -1 -3 -3 -3c-6 2 -10 -6 -15 -2
c-8 -1 -11 2 -15 7c-8 9 -12 17 -11 29c1 10 5 17 12 23zM95 582c26 10 73 -8 66 -42c-6 -28 -4 -56 -4 -84c-1 -59 -21 -116 -22 -174c-1 -27 -2 -54 -2 -80c-1 -34 -1 -68 4 -101c2 -20 10 -57 29 -68c32 -17 64 -11 81 23c12 23 14 50 18 76c4 28 5 56 8 85
c4 34 5 69 7 104c4 51 9 102 8 153c-1 19 -3 39 -5 58c-1 4 -1 9 -1 13c0 13 3 16 14 17c9 1 14 -3 16 -15c4 -27 5 -56 2 -84c-3 -34 -2 -68 -3 -102c-1 -31 -8 -61 -8 -92c-1 -44 -3 -88 -11 -131c-2 -13 -5 -25 -8 -38c-4 -14 -8 -27 -11 -41c-6 -31 -34 -57 -63 -61
c-26 -4 -68 -4 -87 17c-5 6 -9 10 -12 15c-21 23 -30 52 -37 80c-10 39 -21 77 -23 117c-2 38 -2 77 1 115c2 19 4 38 4 57c0 26 4 52 8 78c2 8 2 17 3 26c2 20 4 42 12 62c4 10 5 13 16 17z" />
    <glyph glyph-name="Udieresisacute" unicode="&#x1d7;" horiz-adv-x="366" 
d="M275 768c4 -2 4 -9 -4 -26c-9 -19 -14 -35 -35 -56l-4 -3c-4 -2 -9 -5 -14 -6c-2 0 -4 0 -7 -1c-15 0 -17 17 -7 37c1 2 1 5 2 7c7 14 17 37 31 45c17 9 29 10 38 3zM152 641c10 10 25 6 26 -7c2 -9 8 -18 9 -28c0 -7 -4 -13 -4 -19c0 -2 0 -3 -2 -3c-5 2 -10 -6 -15 -2
c-8 -1 -11 2 -15 7c-8 9 -13 17 -12 29c2 10 6 17 13 23zM242 641c9 10 24 6 26 -7c2 -9 8 -18 9 -28c1 -7 -4 -13 -3 -19c0 -2 -1 -3 -3 -3c-6 2 -10 -6 -15 -2c-8 -1 -11 2 -15 7c-8 9 -12 17 -11 29c1 10 5 17 12 23zM95 582c26 10 73 -8 66 -42c-6 -28 -4 -56 -4 -84
c-1 -59 -21 -116 -22 -174c-1 -27 -2 -54 -2 -80c-1 -34 -1 -68 4 -101c2 -20 10 -57 29 -68c32 -17 64 -11 81 23c12 23 14 50 18 76c4 28 5 56 8 85c4 34 5 69 7 104c4 51 9 102 8 153c-1 19 -3 39 -5 58c-1 4 -1 9 -1 13c0 13 3 16 14 17c9 1 14 -3 16 -15
c4 -27 5 -56 2 -84c-3 -34 -2 -68 -3 -102c-1 -31 -8 -61 -8 -92c-1 -44 -3 -88 -11 -131c-2 -13 -5 -25 -8 -38c-4 -14 -8 -27 -11 -41c-6 -31 -34 -57 -63 -61c-26 -4 -68 -4 -87 17c-5 6 -9 10 -12 15c-21 23 -30 52 -37 80c-10 39 -21 77 -23 117c-2 38 -2 77 1 115
c2 19 4 38 4 57c0 26 4 52 8 78c2 8 2 17 3 26c2 20 4 42 12 62c4 10 5 13 16 17z" />
    <glyph glyph-name="Udieresiscaron" unicode="&#x1d9;" horiz-adv-x="366" 
d="M146 798c8 -6 14 -12 20 -19l1 -1c19 -24 41 -45 59 -69c5 -5 5 -5 9 0c8 9 13 19 19 29c8 10 27 36 35 46c5 3 6 5 9 8c3 4 6 6 10 5c4 0 8 -3 5 -7c-4 -7 -5 -15 -12 -19c-4 -4 -17 -23 -20 -26c-9 -11 -19 -22 -24 -34c-2 -5 -6 -10 -12 -14l-14 -14
c-6 -8 -16 -9 -24 -9c-6 0 -8 1 -10 4c-8 12 -17 22 -28 33c-9 10 -17 20 -25 30c-7 7 -14 15 -20 24c-2 4 -4 7 0 11c3 5 6 9 10 14l6 7c2 0 4 1 6 1zM154 651c10 10 25 6 26 -7c2 -9 8 -18 9 -28c0 -7 -4 -13 -4 -19c0 -2 0 -3 -2 -3c-5 2 -10 -6 -15 -2
c-8 -1 -11 2 -15 7c-8 9 -13 17 -12 29c2 10 6 17 13 23zM244 651c9 10 24 6 26 -7c2 -9 8 -18 9 -28c1 -7 -4 -13 -3 -19c0 -2 -1 -3 -3 -3c-6 2 -10 -6 -15 -2c-8 -1 -11 2 -15 7c-8 9 -12 17 -11 29c1 10 5 17 12 23zM95 582c26 10 73 -8 66 -42c-6 -28 -4 -56 -4 -84
c-1 -59 -21 -116 -22 -174c-1 -27 -2 -54 -2 -80c-1 -34 -1 -68 4 -101c2 -20 10 -57 29 -68c32 -17 64 -11 81 23c12 23 14 50 18 76c4 28 5 56 8 85c4 34 5 69 7 104c4 51 9 102 8 153c-1 19 -3 39 -5 58c-1 4 -1 9 -1 13c0 13 3 16 14 17c9 1 14 -3 16 -15
c4 -27 5 -56 2 -84c-3 -34 -2 -68 -3 -102c-1 -31 -8 -61 -8 -92c-1 -44 -3 -88 -11 -131c-2 -13 -5 -25 -8 -38c-4 -14 -8 -27 -11 -41c-6 -31 -34 -57 -63 -61c-26 -4 -68 -4 -87 17c-5 6 -9 10 -12 15c-21 23 -30 52 -37 80c-10 39 -21 77 -23 117c-2 38 -2 77 1 115
c2 19 4 38 4 57c0 26 4 52 8 78c2 8 2 17 3 26c2 20 4 42 12 62c4 10 5 13 16 17z" />
    <glyph glyph-name="Udieresisgrave" unicode="&#x1db;" horiz-adv-x="366" 
d="M149 811c3 -2 8 -2 10 -5c8 -11 20 -14 29 -22c7 -6 15 -11 21 -20c3 -5 8 -6 11 -9c5 -3 9 -8 15 -11c5 -2 6 -8 11 -11c2 -2 1 -5 -1 -6c-3 -2 -4 -5 -3 -9c1 -3 -2 -7 -3 -8c-4 -3 -4 -8 -5 -13c-1 -8 -12 -10 -18 -5l-27 27c-4 4 -9 8 -10 11c-2 5 -6 3 -8 6
c-2 4 -5 6 -8 10c-7 12 -18 22 -24 35c-4 7 -7 13 -5 20c1 5 2 11 7 10c3 0 5 -4 8 0zM160 659c10 10 25 6 26 -7c2 -9 8 -18 9 -28c0 -7 -4 -13 -4 -19c0 -2 0 -3 -2 -3c-5 2 -10 -6 -15 -2c-8 -1 -11 2 -15 7c-8 9 -13 17 -12 29c2 10 6 17 13 23zM250 659
c9 10 24 6 26 -7c2 -9 8 -18 9 -28c1 -7 -4 -13 -3 -19c0 -2 -1 -3 -3 -3c-6 2 -10 -6 -15 -2c-8 -1 -11 2 -15 7c-8 9 -12 17 -11 29c1 10 5 17 12 23zM95 582c26 10 73 -8 66 -42c-6 -28 -4 -56 -4 -84c-1 -59 -21 -116 -22 -174c-1 -27 -2 -54 -2 -80
c-1 -34 -1 -68 4 -101c2 -20 10 -57 29 -68c32 -17 64 -11 81 23c12 23 14 50 18 76c4 28 5 56 8 85c4 34 5 69 7 104c4 51 9 102 8 153c-1 19 -3 39 -5 58c-1 4 -1 9 -1 13c0 13 3 16 14 17c9 1 14 -3 16 -15c4 -27 5 -56 2 -84c-3 -34 -2 -68 -3 -102
c-1 -31 -8 -61 -8 -92c-1 -44 -3 -88 -11 -131c-2 -13 -5 -25 -8 -38c-4 -14 -8 -27 -11 -41c-6 -31 -34 -57 -63 -61c-26 -4 -68 -4 -87 17c-5 6 -9 10 -12 15c-21 23 -30 52 -37 80c-10 39 -21 77 -23 117c-2 38 -2 77 1 115c2 19 4 38 4 57c0 26 4 52 8 78c2 8 2 17 3 26
c2 20 4 42 12 62c4 10 5 13 16 17z" />
    <glyph glyph-name="Udieresismacron" unicode="&#x1d5;" horiz-adv-x="366" 
d="M278 751c8 -3 9 -13 18 -16c7 -14 -1 -15 -11 -21c-10 -1 -17 3 -26 3c-15 1 -30 -3 -45 -4c-87 -3 -121 -16 -116 16c2 13 89 -2 106 7c13 5 33 7 48 12c9 2 17 7 26 3zM152 655c10 10 25 6 26 -7c2 -9 8 -18 9 -28c0 -7 -4 -13 -4 -19c0 -2 0 -3 -2 -3
c-5 2 -10 -6 -15 -2c-8 -1 -11 2 -15 7c-8 9 -13 17 -12 29c2 10 6 17 13 23zM242 655c9 10 24 6 26 -7c2 -9 8 -18 9 -28c1 -7 -4 -13 -3 -19c0 -2 -1 -3 -3 -3c-6 2 -10 -6 -15 -2c-8 -1 -11 2 -15 7c-8 9 -12 17 -11 29c1 10 5 17 12 23zM95 582c26 10 73 -8 66 -42
c-6 -28 -4 -56 -4 -84c-1 -59 -21 -116 -22 -174c-1 -27 -2 -54 -2 -80c-1 -34 -1 -68 4 -101c2 -20 10 -57 29 -68c32 -17 64 -11 81 23c12 23 14 50 18 76c4 28 5 56 8 85c4 34 5 69 7 104c4 51 9 102 8 153c-1 19 -3 39 -5 58c-1 4 -1 9 -1 13c0 13 3 16 14 17
c9 1 14 -3 16 -15c4 -27 5 -56 2 -84c-3 -34 -2 -68 -3 -102c-1 -31 -8 -61 -8 -92c-1 -44 -3 -88 -11 -131c-2 -13 -5 -25 -8 -38c-4 -14 -8 -27 -11 -41c-6 -31 -34 -57 -63 -61c-26 -4 -68 -4 -87 17c-5 6 -9 10 -12 15c-21 23 -30 52 -37 80c-10 39 -21 77 -23 117
c-2 38 -2 77 1 115c2 19 4 38 4 57c0 26 4 52 8 78c2 8 2 17 3 26c2 20 4 42 12 62c4 10 5 13 16 17z" />
    <glyph glyph-name="Ugrave" unicode="&#xd9;" horiz-adv-x="366" 
d="M147 712c3 -2 8 -2 10 -5c8 -11 20 -14 29 -22c7 -6 15 -11 21 -20c3 -5 8 -6 11 -9c5 -3 9 -8 15 -11c5 -2 6 -8 11 -11c2 -2 1 -5 -1 -6c-3 -2 -4 -5 -3 -9c1 -3 -2 -7 -3 -8c-4 -3 -4 -8 -5 -13c-1 -8 -12 -10 -18 -5l-27 27c-4 4 -9 8 -10 11c-2 5 -6 3 -8 6
c-2 4 -5 6 -8 10c-7 12 -18 22 -24 35c-4 7 -7 13 -5 20c1 5 2 11 7 10c3 0 5 -4 8 0zM95 582c26 10 73 -8 66 -42c-6 -28 -4 -56 -4 -84c-1 -59 -21 -116 -22 -174c-1 -27 -2 -54 -2 -80c-1 -34 -1 -68 4 -101c2 -20 10 -57 29 -68c32 -17 64 -11 81 23c12 23 14 50 18 76
c4 28 5 56 8 85c4 34 5 69 7 104c4 51 9 102 8 153c-1 19 -3 39 -5 58c-1 4 -1 9 -1 13c0 13 3 16 14 17c9 1 14 -3 16 -15c4 -27 5 -56 2 -84c-3 -34 -2 -68 -3 -102c-1 -31 -8 -61 -8 -92c-1 -44 -3 -88 -11 -131c-2 -13 -5 -25 -8 -38c-4 -14 -8 -27 -11 -41
c-6 -31 -34 -57 -63 -61c-26 -4 -68 -4 -87 17c-5 6 -9 10 -12 15c-21 23 -30 52 -37 80c-10 39 -21 77 -23 117c-2 38 -2 77 1 115c2 19 4 38 4 57c0 26 4 52 8 78c2 8 2 17 3 26c2 20 4 42 12 62c4 10 5 13 16 17z" />
    <glyph glyph-name="Uhungarumlaut" unicode="&#x170;" horiz-adv-x="366" 
d="M184 716c4 1 9 2 10 -2c0 -2 -1 -4 2 -6c0 -3 1 -8 0 -9c-6 -10 -4 -20 -7 -30c-2 -7 -4 -15 -8 -23c-2 -4 -2 -8 -2 -11c-1 -5 -5 -10 -5 -15c0 -4 -3 -8 -5 -12c0 -2 -2 -3 -5 -1c-2 0 -5 1 -7 -1s-6 -2 -8 -1c-3 2 -7 0 -10 -1c-7 -1 -13 6 -11 12c4 11 8 20 12 30
c2 4 3 9 4 12c4 3 1 6 3 7c2 4 3 7 4 10c8 10 11 21 19 31c4 4 8 9 14 10zM279 713c4 1 8 2 10 -2c1 -1 -2 -5 1 -6c0 -4 2 -7 0 -10c-5 -10 -4 -19 -6 -29c-3 -6 -4 -15 -8 -23c-2 -3 -2 -8 -3 -11c-1 -5 -3 -9 -4 -15c0 -4 -4 -8 -5 -13c0 -1 -3 -1 -5 0c-3 0 -4 0 -7 -1
c-2 -2 -7 -2 -7 0c-5 1 -8 -1 -12 -2c-6 -1 -12 6 -9 13c3 10 6 20 11 30c1 4 3 8 5 11c2 4 0 5 1 8c3 2 4 6 4 9c8 11 12 22 20 31c4 4 7 10 14 10zM95 582c26 10 73 -8 66 -42c-6 -28 -4 -56 -4 -84c-1 -59 -21 -116 -22 -174c-1 -27 -2 -54 -2 -80c-1 -34 -1 -68 4 -101
c2 -20 10 -57 29 -68c32 -17 64 -11 81 23c12 23 14 50 18 76c4 28 5 56 8 85c4 34 5 69 7 104c4 51 9 102 8 153c-1 19 -3 39 -5 58c-1 4 -1 9 -1 13c0 13 3 16 14 17c9 1 14 -3 16 -15c4 -27 5 -56 2 -84c-3 -34 -2 -68 -3 -102c-1 -31 -8 -61 -8 -92
c-1 -44 -3 -88 -11 -131c-2 -13 -5 -25 -8 -38c-4 -14 -8 -27 -11 -41c-6 -31 -34 -57 -63 -61c-26 -4 -68 -4 -87 17c-5 6 -9 10 -12 15c-21 23 -30 52 -37 80c-10 39 -21 77 -23 117c-2 38 -2 77 1 115c2 19 4 38 4 57c0 26 4 52 8 78c2 8 2 17 3 26c2 20 4 42 12 62
c4 10 5 13 16 17z" />
    <glyph glyph-name="Umacron" unicode="&#x16a;" horiz-adv-x="366" 
d="M277 671c8 -3 9 -13 18 -16c7 -14 -1 -15 -11 -21c-10 -1 -17 3 -26 3c-15 1 -30 -3 -45 -4c-87 -3 -121 -16 -116 16c2 13 89 -2 106 7c13 5 33 7 48 12c9 2 17 7 26 3zM95 582c26 10 73 -8 66 -42c-6 -28 -4 -56 -4 -84c-1 -59 -21 -116 -22 -174c-1 -27 -2 -54 -2 -80
c-1 -34 -1 -68 4 -101c2 -20 10 -57 29 -68c32 -17 64 -11 81 23c12 23 14 50 18 76c4 28 5 56 8 85c4 34 5 69 7 104c4 51 9 102 8 153c-1 19 -3 39 -5 58c-1 4 -1 9 -1 13c0 13 3 16 14 17c9 1 14 -3 16 -15c4 -27 5 -56 2 -84c-3 -34 -2 -68 -3 -102
c-1 -31 -8 -61 -8 -92c-1 -44 -3 -88 -11 -131c-2 -13 -5 -25 -8 -38c-4 -14 -8 -27 -11 -41c-6 -31 -34 -57 -63 -61c-26 -4 -68 -4 -87 17c-5 6 -9 10 -12 15c-21 23 -30 52 -37 80c-10 39 -21 77 -23 117c-2 38 -2 77 1 115c2 19 4 38 4 57c0 26 4 52 8 78c2 8 2 17 3 26
c2 20 4 42 12 62c4 10 5 13 16 17z" />
    <glyph glyph-name="Uogonek" unicode="&#x172;" horiz-adv-x="366" 
d="M312 547c4 -27 5 -56 2 -84c-3 -34 -2 -68 -3 -102c-1 -31 -8 -61 -8 -92c-1 -44 -3 -88 -11 -131c-2 -13 -5 -25 -8 -38c-4 -14 -8 -27 -11 -41c-6 -31 -34 -57 -63 -61c-7 -1 -15 -2 -24 -2c-3 -8 -4 -17 -2 -24c1 -8 3 -14 12 -14c8 -1 15 -6 22 0c6 4 8 9 16 9
c6 1 13 -3 15 -9c1 -3 3 -6 4 -9c5 -8 3 -14 -6 -21c-22 -12 -44 -18 -66 -10c-8 3 -12 10 -17 17c-1 1 -2 2 -3 5c-7 6 -9 16 -9 24c1 13 2 23 8 34c-14 2 -28 7 -37 17c-5 6 -9 10 -12 15c-21 23 -30 52 -37 80c-10 39 -21 77 -23 117c-2 38 -2 77 1 115c2 19 4 38 4 57
c0 26 4 52 8 78c2 8 2 17 3 26c2 20 4 42 12 62c4 10 5 13 16 17c26 10 73 -8 66 -42c-6 -28 -4 -56 -4 -84c-1 -59 -21 -116 -22 -174c-1 -27 -2 -54 -2 -80c-1 -34 -1 -68 4 -101c2 -20 10 -57 29 -68c8 -5 17 -7 25 -9l2 1c2 1 5 0 6 -1c20 0 37 10 48 32
c12 23 14 50 18 76c4 28 5 56 8 85c4 34 5 69 7 104c4 51 9 102 8 153c-1 19 -3 39 -5 58c-1 4 -1 9 -1 13c0 13 3 16 14 17c9 1 14 -3 16 -15z" />
    <glyph glyph-name="Uring" unicode="&#x16e;" horiz-adv-x="366" 
d="M187 749c8 4 17 -1 24 -6c17 -12 31 -27 37 -54c3 -16 1 -33 -2 -50c-2 -13 -6 -22 -12 -30c-7 -11 -16 -21 -28 -20c-18 2 -32 15 -43 38c-2 6 -6 12 -9 18c-6 10 -8 23 -7 36c1 23 6 43 21 56c6 5 12 9 19 12zM210 715c-3 -4 -5 -11 -8 -12c-6 -2 -10 -8 -14 -12
c-7 -8 -13 -38 -10 -49c4 -16 18 -30 28 -30c7 -1 13 3 17 9c6 9 10 19 14 29c6 17 3 43 -6 56c-2 3 -5 4 -7 8c-3 6 -9 5 -14 1zM95 582c26 10 73 -8 66 -42c-6 -28 -4 -56 -4 -84c-1 -59 -21 -116 -22 -174c-1 -27 -2 -54 -2 -80c-1 -34 -1 -68 4 -101
c2 -20 10 -57 29 -68c32 -17 64 -11 81 23c12 23 14 50 18 76c4 28 5 56 8 85c4 34 5 69 7 104c4 51 9 102 8 153c-1 19 -3 39 -5 58c-1 4 -1 9 -1 13c0 13 3 16 14 17c9 1 14 -3 16 -15c4 -27 5 -56 2 -84c-3 -34 -2 -68 -3 -102c-1 -31 -8 -61 -8 -92
c-1 -44 -3 -88 -11 -131c-2 -13 -5 -25 -8 -38c-4 -14 -8 -27 -11 -41c-6 -31 -34 -57 -63 -61c-26 -4 -68 -4 -87 17c-5 6 -9 10 -12 15c-21 23 -30 52 -37 80c-10 39 -21 77 -23 117c-2 38 -2 77 1 115c2 19 4 38 4 57c0 26 4 52 8 78c2 8 2 17 3 26c2 20 4 42 12 62
c4 10 5 13 16 17z" />
    <glyph glyph-name="Utilde" unicode="&#x168;" horiz-adv-x="366" 
d="M171 670c14 1 28 -5 41 -11c11 -7 19 -16 27 -25c8 -8 23 -9 33 -3c5 3 9 8 10 13c2 5 2 13 5 17c9 8 11 -9 11 -14c-1 -24 -20 -42 -42 -42c-4 1 -7 1 -10 2c-10 3 -17 10 -25 16c-5 3 -9 4 -13 6c-9 5 -18 7 -27 7c-16 1 -22 -9 -29 -23c-4 -8 -15 -18 -23 -12
c-8 5 -8 16 -6 25c4 13 10 21 17 31c9 8 20 12 31 13zM95 582c26 10 73 -8 66 -42c-6 -28 -4 -56 -4 -84c-1 -59 -21 -116 -22 -174c-1 -27 -2 -54 -2 -80c-1 -34 -1 -68 4 -101c2 -20 10 -57 29 -68c32 -17 64 -11 81 23c12 23 14 50 18 76c4 28 5 56 8 85c4 34 5 69 7 104
c4 51 9 102 8 153c-1 19 -3 39 -5 58c-1 4 -1 9 -1 13c0 13 3 16 14 17c9 1 14 -3 16 -15c4 -27 5 -56 2 -84c-3 -34 -2 -68 -3 -102c-1 -31 -8 -61 -8 -92c-1 -44 -3 -88 -11 -131c-2 -13 -5 -25 -8 -38c-4 -14 -8 -27 -11 -41c-6 -31 -34 -57 -63 -61
c-26 -4 -68 -4 -87 17c-5 6 -9 10 -12 15c-21 23 -30 52 -37 80c-10 39 -21 77 -23 117c-2 38 -2 77 1 115c2 19 4 38 4 57c0 26 4 52 8 78c2 8 2 17 3 26c2 20 4 42 12 62c4 10 5 13 16 17z" />
    <glyph glyph-name="V" unicode="V" horiz-adv-x="324" 
d="M263 569c7 -5 8 -13 7 -22c-2 -27 -2 -55 0 -83c1 -15 -2 -31 -2 -47c-1 -8 -2 -16 -2 -24c0 -14 -2 -28 -3 -42c-8 -51 -15 -102 -21 -153c-5 -40 -13 -80 -26 -119c-8 -21 -17 -42 -26 -63c-16 -16 -16 -16 -44 -10c-15 3 -19 27 -24 42c-8 28 -14 56 -18 84
c-4 21 -8 42 -13 62c-5 24 -9 48 -11 73c-2 22 -6 45 -10 67c-1 2 -1 3 -1 5c-2 41 -12 80 -16 121c-2 26 -7 52 -8 78c-1 18 3 24 21 27c2 0 3 0 5 1c37 11 44 -39 50 -66c10 -40 17 -81 19 -123c2 -28 9 -55 11 -83c3 -24 4 -48 2 -71c-1 -18 0 -35 3 -52
c6 -29 6 -60 17 -89c4 -10 1 -22 6 -34c7 3 7 10 9 14c14 30 18 63 25 95c3 15 12 29 12 45c0 52 14 101 14 153c0 47 7 94 8 141c0 18 0 37 2 55c1 9 5 15 14 18z" />
    <glyph glyph-name="W" unicode="W" horiz-adv-x="460" 
d="M86 570c7 0 11 -4 13 -11c8 -18 13 -37 13 -56c2 -103 26 -209 23 -313c-1 -25 0 -52 4 -78l3 -25c0 -5 6 -30 5 -33c19 39 42 71 60 107c2 5 6 11 10 16c2 4 4 8 4 12c0 15 7 22 22 25c13 3 19 0 26 -13c14 -25 26 -52 32 -81c4 -18 11 -36 17 -55c4 12 9 23 12 35
c17 70 33 137 45 208c8 49 8 98 12 147c2 30 3 58 7 88c2 9 6 17 14 23c3 2 5 7 9 3c4 -3 9 -5 8 -11v-3c-10 -37 -6 -75 -9 -112c-8 -80 -14 -168 -37 -245c-11 -35 -14 -72 -25 -107c-8 -26 -14 -53 -20 -79c-1 -4 -2 -8 -6 -10c-22 -10 -47 -16 -62 15
c-10 22 -15 45 -19 69c-3 24 -8 47 -12 70c0 3 0 6 -4 8c-8 -8 -13 -18 -19 -28c-16 -26 -30 -53 -46 -79c-5 -9 -24 -50 -34 -52s-20 -3 -30 -2c-4 1 -5 4 -6 7c-6 13 -11 25 -14 38c-9 46 -15 91 -21 137c-6 45 -9 91 -14 136c-2 18 -3 36 -2 54c1 46 -3 92 -4 138
c0 13 2 27 0 40c-1 8 5 14 14 15c11 2 21 2 31 2z" />
    <glyph glyph-name="Wacute" unicode="&#x1e82;" horiz-adv-x="460" 
d="M305 664c4 -2 4 -9 -4 -26c-9 -19 -14 -35 -35 -56l-4 -3c-4 -2 -9 -5 -14 -6c-2 0 -4 0 -7 -1c-15 0 -17 17 -7 37c1 2 1 5 2 7c7 14 17 37 31 45c17 9 29 10 38 3zM86 570c7 0 11 -4 13 -11c8 -18 13 -37 13 -56c2 -103 26 -209 23 -313c-1 -25 0 -52 4 -78l3 -25
c0 -5 6 -30 5 -33c19 39 42 71 60 107c2 5 6 11 10 16c2 4 4 8 4 12c0 15 7 22 22 25c13 3 19 0 26 -13c14 -25 26 -52 32 -81c4 -18 11 -36 17 -55c4 12 9 23 12 35c17 70 33 137 45 208c8 49 8 98 12 147c2 30 3 58 7 88c2 9 6 17 14 23c3 2 5 7 9 3c4 -3 9 -5 8 -11v-3
c-10 -37 -6 -75 -9 -112c-8 -80 -14 -168 -37 -245c-11 -35 -14 -72 -25 -107c-8 -26 -14 -53 -20 -79c-1 -4 -2 -8 -6 -10c-22 -10 -47 -16 -62 15c-10 22 -15 45 -19 69c-3 24 -8 47 -12 70c0 3 0 6 -4 8c-8 -8 -13 -18 -19 -28c-16 -26 -30 -53 -46 -79
c-5 -9 -24 -50 -34 -52s-20 -3 -30 -2c-4 1 -5 4 -6 7c-6 13 -11 25 -14 38c-9 46 -15 91 -21 137c-6 45 -9 91 -14 136c-2 18 -3 36 -2 54c1 46 -3 92 -4 138c0 13 2 27 0 40c-1 8 5 14 14 15c11 2 21 2 31 2z" />
    <glyph glyph-name="Wcircumflex" unicode="&#x174;" horiz-adv-x="460" 
d="M257 710c6 0 8 -2 10 -5c7 -12 16 -23 26 -34c8 -10 16 -21 24 -32c6 -7 13 -15 18 -24c2 -4 3 -7 0 -11c-3 -5 -7 -9 -11 -14c-2 -2 -4 -5 -7 -7h-6c-7 6 -13 13 -18 20l-1 1c-18 25 -39 47 -56 72c-4 5 -4 5 -9 0c-8 -8 -14 -18 -21 -27c-7 -11 -28 -35 -37 -44
c-4 -3 -6 -6 -9 -9s-6 -5 -10 -4c-4 0 -8 4 -5 8c4 6 6 14 13 18c4 3 19 22 22 25c9 10 19 20 25 33c3 5 7 9 12 13s10 8 15 13c7 7 17 9 25 8zM86 570c7 0 11 -4 13 -11c8 -18 13 -37 13 -56c2 -103 26 -209 23 -313c-1 -25 0 -52 4 -78l3 -25c0 -5 6 -30 5 -33
c19 39 42 71 60 107c2 5 6 11 10 16c2 4 4 8 4 12c0 15 7 22 22 25c13 3 19 0 26 -13c14 -25 26 -52 32 -81c4 -18 11 -36 17 -55c4 12 9 23 12 35c17 70 33 137 45 208c8 49 8 98 12 147c2 30 3 58 7 88c2 9 6 17 14 23c3 2 5 7 9 3c4 -3 9 -5 8 -11v-3
c-10 -37 -6 -75 -9 -112c-8 -80 -14 -168 -37 -245c-11 -35 -14 -72 -25 -107c-8 -26 -14 -53 -20 -79c-1 -4 -2 -8 -6 -10c-22 -10 -47 -16 -62 15c-10 22 -15 45 -19 69c-3 24 -8 47 -12 70c0 3 0 6 -4 8c-8 -8 -13 -18 -19 -28c-16 -26 -30 -53 -46 -79
c-5 -9 -24 -50 -34 -52s-20 -3 -30 -2c-4 1 -5 4 -6 7c-6 13 -11 25 -14 38c-9 46 -15 91 -21 137c-6 45 -9 91 -14 136c-2 18 -3 36 -2 54c1 46 -3 92 -4 138c0 13 2 27 0 40c-1 8 5 14 14 15c11 2 21 2 31 2z" />
    <glyph glyph-name="Wdieresis" unicode="&#x1e84;" horiz-adv-x="460" 
d="M202 664c10 10 25 6 26 -7c2 -9 8 -18 9 -28c0 -7 -4 -13 -4 -19c0 -2 0 -3 -2 -3c-5 2 -10 -6 -15 -2c-8 -1 -11 2 -15 7c-8 9 -13 17 -12 29c2 10 6 17 13 23zM292 664c9 10 24 6 26 -7c2 -9 8 -18 9 -28c1 -7 -4 -13 -3 -19c0 -2 -1 -3 -3 -3c-6 2 -10 -6 -15 -2
c-8 -1 -11 2 -15 7c-8 9 -12 17 -11 29c1 10 5 17 12 23zM86 570c7 0 11 -4 13 -11c8 -18 13 -37 13 -56c2 -103 26 -209 23 -313c-1 -25 0 -52 4 -78l3 -25c0 -5 6 -30 5 -33c19 39 42 71 60 107c2 5 6 11 10 16c2 4 4 8 4 12c0 15 7 22 22 25c13 3 19 0 26 -13
c14 -25 26 -52 32 -81c4 -18 11 -36 17 -55c4 12 9 23 12 35c17 70 33 137 45 208c8 49 8 98 12 147c2 30 3 58 7 88c2 9 6 17 14 23c3 2 5 7 9 3c4 -3 9 -5 8 -11v-3c-10 -37 -6 -75 -9 -112c-8 -80 -14 -168 -37 -245c-11 -35 -14 -72 -25 -107c-8 -26 -14 -53 -20 -79
c-1 -4 -2 -8 -6 -10c-22 -10 -47 -16 -62 15c-10 22 -15 45 -19 69c-3 24 -8 47 -12 70c0 3 0 6 -4 8c-8 -8 -13 -18 -19 -28c-16 -26 -30 -53 -46 -79c-5 -9 -24 -50 -34 -52s-20 -3 -30 -2c-4 1 -5 4 -6 7c-6 13 -11 25 -14 38c-9 46 -15 91 -21 137c-6 45 -9 91 -14 136
c-2 18 -3 36 -2 54c1 46 -3 92 -4 138c0 13 2 27 0 40c-1 8 5 14 14 15c11 2 21 2 31 2z" />
    <glyph glyph-name="Wgrave" unicode="&#x1e80;" horiz-adv-x="460" 
d="M199 709c3 -2 8 -2 10 -5c8 -11 20 -14 29 -22c7 -6 15 -11 21 -20c3 -5 8 -6 11 -9c5 -3 9 -8 15 -11c5 -2 6 -8 11 -11c2 -2 1 -5 -1 -6c-3 -2 -4 -5 -3 -9c1 -3 -2 -7 -3 -8c-4 -3 -4 -8 -5 -13c-1 -8 -12 -10 -18 -5l-27 27c-4 4 -9 8 -10 11c-2 5 -6 3 -8 6
c-2 4 -5 6 -8 10c-7 12 -18 22 -24 35c-4 7 -7 13 -5 20c1 5 2 11 7 10c3 0 5 -4 8 0zM86 570c7 0 11 -4 13 -11c8 -18 13 -37 13 -56c2 -103 26 -209 23 -313c-1 -25 0 -52 4 -78l3 -25c0 -5 6 -30 5 -33c19 39 42 71 60 107c2 5 6 11 10 16c2 4 4 8 4 12c0 15 7 22 22 25
c13 3 19 0 26 -13c14 -25 26 -52 32 -81c4 -18 11 -36 17 -55c4 12 9 23 12 35c17 70 33 137 45 208c8 49 8 98 12 147c2 30 3 58 7 88c2 9 6 17 14 23c3 2 5 7 9 3c4 -3 9 -5 8 -11v-3c-10 -37 -6 -75 -9 -112c-8 -80 -14 -168 -37 -245c-11 -35 -14 -72 -25 -107
c-8 -26 -14 -53 -20 -79c-1 -4 -2 -8 -6 -10c-22 -10 -47 -16 -62 15c-10 22 -15 45 -19 69c-3 24 -8 47 -12 70c0 3 0 6 -4 8c-8 -8 -13 -18 -19 -28c-16 -26 -30 -53 -46 -79c-5 -9 -24 -50 -34 -52s-20 -3 -30 -2c-4 1 -5 4 -6 7c-6 13 -11 25 -14 38
c-9 46 -15 91 -21 137c-6 45 -9 91 -14 136c-2 18 -3 36 -2 54c1 46 -3 92 -4 138c0 13 2 27 0 40c-1 8 5 14 14 15c11 2 21 2 31 2z" />
    <glyph glyph-name="X" unicode="X" horiz-adv-x="357" 
d="M302 560c8 -1 5 -7 3 -13c-8 -23 -15 -45 -23 -67c-17 -45 -36 -88 -50 -133c-2 -8 -5 -16 -10 -22c-12 -19 -6 -49 3 -68c11 -24 19 -46 28 -70c8 -21 10 -43 20 -63c9 -19 16 -41 22 -63c5 -14 7 -27 6 -42c-2 -13 -8 -18 -22 -17c-9 0 -18 2 -27 3c-6 2 -10 5 -13 10
c-8 14 -14 28 -19 43c-14 45 -33 87 -48 131c0 3 -1 5 -2 6c-4 5 -7 4 -9 -1l-10 -18c-10 -23 -19 -55 -28 -79c-12 -32 -36 -97 -48 -97c-21 -1 23 85 27 96c12 26 23 52 33 80c10 27 24 54 12 84c-11 26 -17 53 -24 79c-16 56 -33 120 -60 172c-4 7 -12 11 -13 20
c-2 14 5 24 16 28c28 13 66 -5 76 -33c14 -39 25 -76 43 -114c9 -20 13 -41 20 -61c4 2 4 6 6 9c7 19 16 37 23 55l48 115l9 22c3 5 4 11 11 8z" />
    <glyph glyph-name="Y" unicode="Y" 
d="M246 584c40 -10 40 -17 39 -36c0 -19 -5 -38 -5 -57c1 -67 -4 -132 -14 -198c-5 -27 -13 -60 -21 -87c-9 -30 -15 -63 -26 -93c-8 -25 -13 -51 -28 -73c-35 -50 -37 -40 -69 -43c-11 -2 -23 5 -32 12c-25 17 -33 43 -38 71c0 4 0 8 1 11c1 7 6 11 13 11c6 0 11 -5 11 -12
c0 -12 6 -23 9 -34c2 -7 5 -14 9 -19c9 -15 25 -15 36 -1c5 6 8 13 9 20c14 73 28 146 36 219c2 16 1 32 -19 31h-10c-16 -1 -30 2 -43 14c-13 11 -27 20 -35 35c-12 21 -16 44 -18 67c-4 37 4 72 19 106c6 14 13 16 27 13c21 -5 26 -20 26 -38c1 -15 3 -29 1 -45
c-4 -27 -1 -55 7 -82c4 -15 13 -49 35 -35c15 8 23 23 23 39c0 43 10 84 16 126c2 19 5 39 8 59c3 21 13 24 33 19z" />
    <glyph glyph-name="Yacute" unicode="&#xdd;" 
d="M247 692c4 -2 4 -9 -4 -26c-9 -19 -14 -35 -35 -56l-4 -3c-4 -2 -9 -5 -14 -6c-2 0 -4 0 -7 -1c-15 0 -17 17 -7 37c1 2 1 5 2 7c7 14 17 37 31 45c17 9 29 10 38 3zM246 584c40 -10 40 -17 39 -36c0 -19 -5 -38 -5 -57c1 -67 -4 -132 -14 -198c-5 -27 -13 -60 -21 -87
c-9 -30 -15 -63 -26 -93c-8 -25 -13 -51 -28 -73c-35 -50 -37 -40 -69 -43c-11 -2 -23 5 -32 12c-25 17 -33 43 -38 71c0 4 0 8 1 11c1 7 6 11 13 11c6 0 11 -5 11 -12c0 -12 6 -23 9 -34c2 -7 5 -14 9 -19c9 -15 25 -15 36 -1c5 6 8 13 9 20c14 73 28 146 36 219
c2 16 1 32 -19 31h-10c-16 -1 -30 2 -43 14c-13 11 -27 20 -35 35c-12 21 -16 44 -18 67c-4 37 4 72 19 106c6 14 13 16 27 13c21 -5 26 -20 26 -38c1 -15 3 -29 1 -45c-4 -27 -1 -55 7 -82c4 -15 13 -49 35 -35c15 8 23 23 23 39c0 43 10 84 16 126c2 19 5 39 8 59
c3 21 13 24 33 19z" />
    <glyph glyph-name="Ycircumflex" unicode="&#x176;" 
d="M222 741c6 0 8 -2 10 -5c7 -12 16 -23 26 -34c8 -10 16 -21 24 -32c6 -7 13 -15 18 -24c2 -4 3 -7 0 -11c-3 -5 -7 -9 -11 -14c-2 -2 -4 -5 -7 -7h-6c-7 6 -13 13 -18 20l-1 1c-18 25 -39 47 -56 72c-4 5 -4 5 -9 0c-8 -8 -14 -18 -21 -27c-7 -11 -28 -35 -37 -44
c-4 -3 -6 -6 -9 -9s-6 -5 -10 -4c-4 0 -8 4 -5 8c4 6 6 14 13 18c4 3 19 22 22 25c9 10 19 20 25 33c3 5 7 9 12 13s10 8 15 13c7 7 17 9 25 8zM246 584c40 -10 40 -17 39 -36c0 -19 -5 -38 -5 -57c1 -67 -4 -132 -14 -198c-5 -27 -13 -60 -21 -87c-9 -30 -15 -63 -26 -93
c-8 -25 -13 -51 -28 -73c-35 -50 -37 -40 -69 -43c-11 -2 -23 5 -32 12c-25 17 -33 43 -38 71c0 4 0 8 1 11c1 7 6 11 13 11c6 0 11 -5 11 -12c0 -12 6 -23 9 -34c2 -7 5 -14 9 -19c9 -15 25 -15 36 -1c5 6 8 13 9 20c14 73 28 146 36 219c2 16 1 32 -19 31h-10
c-16 -1 -30 2 -43 14c-13 11 -27 20 -35 35c-12 21 -16 44 -18 67c-4 37 4 72 19 106c6 14 13 16 27 13c21 -5 26 -20 26 -38c1 -15 3 -29 1 -45c-4 -27 -1 -55 7 -82c4 -15 13 -49 35 -35c15 8 23 23 23 39c0 43 10 84 16 126c2 19 5 39 8 59c3 21 13 24 33 19z" />
    <glyph glyph-name="Ydieresis" unicode="&#x178;" 
d="M136 661c10 10 25 6 26 -7c2 -9 8 -18 9 -28c0 -7 -4 -13 -4 -19c0 -2 0 -3 -2 -3c-5 2 -10 -6 -15 -2c-8 -1 -11 2 -15 7c-8 9 -13 17 -12 29c2 10 6 17 13 23zM226 661c9 10 24 6 26 -7c2 -9 8 -18 9 -28c1 -7 -4 -13 -3 -19c0 -2 -1 -3 -3 -3c-6 2 -10 -6 -15 -2
c-8 -1 -11 2 -15 7c-8 9 -12 17 -11 29c1 10 5 17 12 23zM246 584c40 -10 40 -17 39 -36c0 -19 -5 -38 -5 -57c1 -67 -4 -132 -14 -198c-5 -27 -13 -60 -21 -87c-9 -30 -15 -63 -26 -93c-8 -25 -13 -51 -28 -73c-35 -50 -37 -40 -69 -43c-11 -2 -23 5 -32 12
c-25 17 -33 43 -38 71c0 4 0 8 1 11c1 7 6 11 13 11c6 0 11 -5 11 -12c0 -12 6 -23 9 -34c2 -7 5 -14 9 -19c9 -15 25 -15 36 -1c5 6 8 13 9 20c14 73 28 146 36 219c2 16 1 32 -19 31h-10c-16 -1 -30 2 -43 14c-13 11 -27 20 -35 35c-12 21 -16 44 -18 67
c-4 37 4 72 19 106c6 14 13 16 27 13c21 -5 26 -20 26 -38c1 -15 3 -29 1 -45c-4 -27 -1 -55 7 -82c4 -15 13 -49 35 -35c15 8 23 23 23 39c0 43 10 84 16 126c2 19 5 39 8 59c3 21 13 24 33 19z" />
    <glyph glyph-name="Ygrave" unicode="&#x1ef2;" 
d="M137 744c3 -2 8 -2 10 -5c8 -11 20 -14 29 -22c7 -6 15 -11 21 -20c3 -5 8 -6 11 -9c5 -3 9 -8 15 -11c5 -2 6 -8 11 -11c2 -2 1 -5 -1 -6c-3 -2 -4 -5 -3 -9c1 -3 -2 -7 -3 -8c-4 -3 -4 -8 -5 -13c-1 -8 -12 -10 -18 -5l-27 27c-4 4 -9 8 -10 11c-2 5 -6 3 -8 6
c-2 4 -5 6 -8 10c-7 12 -18 22 -24 35c-4 7 -7 13 -5 20c1 5 2 11 7 10c3 0 5 -4 8 0zM246 584c40 -10 40 -17 39 -36c0 -19 -5 -38 -5 -57c1 -67 -4 -132 -14 -198c-5 -27 -13 -60 -21 -87c-9 -30 -15 -63 -26 -93c-8 -25 -13 -51 -28 -73c-35 -50 -37 -40 -69 -43
c-11 -2 -23 5 -32 12c-25 17 -33 43 -38 71c0 4 0 8 1 11c1 7 6 11 13 11c6 0 11 -5 11 -12c0 -12 6 -23 9 -34c2 -7 5 -14 9 -19c9 -15 25 -15 36 -1c5 6 8 13 9 20c14 73 28 146 36 219c2 16 1 32 -19 31h-10c-16 -1 -30 2 -43 14c-13 11 -27 20 -35 35
c-12 21 -16 44 -18 67c-4 37 4 72 19 106c6 14 13 16 27 13c21 -5 26 -20 26 -38c1 -15 3 -29 1 -45c-4 -27 -1 -55 7 -82c4 -15 13 -49 35 -35c15 8 23 23 23 39c0 43 10 84 16 126c2 19 5 39 8 59c3 21 13 24 33 19z" />
    <glyph glyph-name="Ytilde" unicode="&#x1ef8;" 
d="M147 674c14 1 28 -5 41 -11c11 -7 19 -16 27 -25c8 -8 23 -9 33 -3c5 3 9 8 10 13c2 5 2 13 5 17c9 8 11 -9 11 -14c-1 -24 -20 -42 -42 -42c-4 1 -7 1 -10 2c-10 3 -17 10 -25 16c-5 3 -9 4 -13 6c-9 5 -18 7 -27 7c-16 1 -22 -9 -29 -23c-4 -8 -15 -18 -23 -12
c-8 5 -8 16 -6 25c4 13 10 21 17 31c9 8 20 12 31 13zM246 584c40 -10 40 -17 39 -36c0 -19 -5 -38 -5 -57c1 -67 -4 -132 -14 -198c-5 -27 -13 -60 -21 -87c-9 -30 -15 -63 -26 -93c-8 -25 -13 -51 -28 -73c-35 -50 -37 -40 -69 -43c-11 -2 -23 5 -32 12
c-25 17 -33 43 -38 71c0 4 0 8 1 11c1 7 6 11 13 11c6 0 11 -5 11 -12c0 -12 6 -23 9 -34c2 -7 5 -14 9 -19c9 -15 25 -15 36 -1c5 6 8 13 9 20c14 73 28 146 36 219c2 16 1 32 -19 31h-10c-16 -1 -30 2 -43 14c-13 11 -27 20 -35 35c-12 21 -16 44 -18 67
c-4 37 4 72 19 106c6 14 13 16 27 13c21 -5 26 -20 26 -38c1 -15 3 -29 1 -45c-4 -27 -1 -55 7 -82c4 -15 13 -49 35 -35c15 8 23 23 23 39c0 43 10 84 16 126c2 19 5 39 8 59c3 21 13 24 33 19z" />
    <glyph glyph-name="Z" unicode="Z" horiz-adv-x="347" 
d="M261 593c6 -6 13 -11 20 -16c1 -2 2 -4 4 -5c9 -7 10 -16 11 -26c1 -17 2 -35 -6 -51c-7 -15 -7 -32 -11 -47c-4 -14 -8 -27 -16 -39c-4 -7 -3 -16 -7 -23c-16 -35 -20 -73 -38 -107c-1 -4 -2 -8 -2 -11c0 -6 -1 -11 -3 -16c-9 -18 -11 -39 -22 -56
c-14 -25 -18 -54 -32 -79c-3 -4 -3 -9 -4 -14c-1 -2 -1 -6 -3 -7c-16 -15 -13 -38 -25 -54c-4 -6 -1 -9 6 -9c5 0 10 1 15 3c15 8 30 2 44 -3c5 -2 8 -5 11 -10c3 -4 3 -8 -2 -10c-11 -5 -21 -10 -33 -14c-25 -7 -51 -6 -76 -12c-7 -2 -13 1 -18 6s-10 9 -16 11
c-3 6 -6 12 -8 18c9 44 18 88 31 131c6 20 15 40 24 59c11 26 18 53 27 80c15 43 27 87 45 129c6 13 9 28 15 41c12 25 18 52 33 76l3 7c4 8 2 12 -6 12c-14 1 -29 1 -42 0c-10 -1 -19 -1 -26 5l-6 23c1 2 1 3 2 4l88 3c8 0 15 1 23 1z" />
    <glyph glyph-name="Zacute" unicode="&#x179;" horiz-adv-x="347" 
d="M281 744c4 -2 4 -9 -4 -26c-9 -19 -14 -35 -35 -56l-4 -3c-4 -2 -9 -5 -14 -6c-2 0 -4 0 -7 -1c-15 0 -17 17 -7 37c1 2 1 5 2 7c7 14 17 37 31 45c17 9 29 10 38 3zM261 593c6 -6 13 -11 20 -16c1 -2 2 -4 4 -5c9 -7 10 -16 11 -26c1 -17 2 -35 -6 -51
c-7 -15 -7 -32 -11 -47c-4 -14 -8 -27 -16 -39c-4 -7 -3 -16 -7 -23c-16 -35 -20 -73 -38 -107c-1 -4 -2 -8 -2 -11c0 -6 -1 -11 -3 -16c-9 -18 -11 -39 -22 -56c-14 -25 -18 -54 -32 -79c-3 -4 -3 -9 -4 -14c-1 -2 -1 -6 -3 -7c-16 -15 -13 -38 -25 -54c-4 -6 -1 -9 6 -9
c5 0 10 1 15 3c15 8 30 2 44 -3c5 -2 8 -5 11 -10c3 -4 3 -8 -2 -10c-11 -5 -21 -10 -33 -14c-25 -7 -51 -6 -76 -12c-7 -2 -13 1 -18 6s-10 9 -16 11c-3 6 -6 12 -8 18c9 44 18 88 31 131c6 20 15 40 24 59c11 26 18 53 27 80c15 43 27 87 45 129c6 13 9 28 15 41
c12 25 18 52 33 76l3 7c4 8 2 12 -6 12c-14 1 -29 1 -42 0c-10 -1 -19 -1 -26 5l-6 23c1 2 1 3 2 4l88 3c8 0 15 1 23 1z" />
    <glyph glyph-name="Zcaron" unicode="&#x17d;" horiz-adv-x="347" 
d="M174 758c8 -6 14 -12 20 -19l1 -1c19 -24 41 -45 59 -69c5 -5 5 -5 9 0c8 9 13 19 19 29c8 10 27 36 35 46c5 3 6 5 9 8c3 4 6 6 10 5c4 0 8 -3 5 -7c-4 -7 -5 -15 -12 -19c-4 -4 -17 -23 -20 -26c-9 -11 -19 -22 -24 -34c-2 -5 -6 -10 -12 -14l-14 -14
c-6 -8 -16 -9 -24 -9c-6 0 -8 1 -10 4c-8 12 -17 22 -28 33c-9 10 -17 20 -25 30c-7 7 -14 15 -20 24c-2 4 -4 7 0 11c3 5 6 9 10 14l6 7c2 0 4 1 6 1zM261 593c6 -6 13 -11 20 -16c1 -2 2 -4 4 -5c9 -7 10 -16 11 -26c1 -17 2 -35 -6 -51c-7 -15 -7 -32 -11 -47
c-4 -14 -8 -27 -16 -39c-4 -7 -3 -16 -7 -23c-16 -35 -20 -73 -38 -107c-1 -4 -2 -8 -2 -11c0 -6 -1 -11 -3 -16c-9 -18 -11 -39 -22 -56c-14 -25 -18 -54 -32 -79c-3 -4 -3 -9 -4 -14c-1 -2 -1 -6 -3 -7c-16 -15 -13 -38 -25 -54c-4 -6 -1 -9 6 -9c5 0 10 1 15 3
c15 8 30 2 44 -3c5 -2 8 -5 11 -10c3 -4 3 -8 -2 -10c-11 -5 -21 -10 -33 -14c-25 -7 -51 -6 -76 -12c-7 -2 -13 1 -18 6s-10 9 -16 11c-3 6 -6 12 -8 18c9 44 18 88 31 131c6 20 15 40 24 59c11 26 18 53 27 80c15 43 27 87 45 129c6 13 9 28 15 41c12 25 18 52 33 76l3 7
c4 8 2 12 -6 12c-14 1 -29 1 -42 0c-10 -1 -19 -1 -26 5l-6 23c1 2 1 3 2 4l88 3c8 0 15 1 23 1z" />
    <glyph glyph-name="Zdotaccent" unicode="&#x17b;" horiz-adv-x="347" 
d="M225 720c9 9 23 5 25 -8c1 -9 8 -17 9 -27c0 -7 -3 -13 -3 -20c0 -1 -2 -2 -3 -1c-5 1 -10 -6 -14 -2c-8 -2 -11 2 -15 7c-8 8 -13 17 -11 28c1 9 5 17 12 23zM261 593c6 -6 13 -11 20 -16c1 -2 2 -4 4 -5c9 -7 10 -16 11 -26c1 -17 2 -35 -6 -51c-7 -15 -7 -32 -11 -47
c-4 -14 -8 -27 -16 -39c-4 -7 -3 -16 -7 -23c-16 -35 -20 -73 -38 -107c-1 -4 -2 -8 -2 -11c0 -6 -1 -11 -3 -16c-9 -18 -11 -39 -22 -56c-14 -25 -18 -54 -32 -79c-3 -4 -3 -9 -4 -14c-1 -2 -1 -6 -3 -7c-16 -15 -13 -38 -25 -54c-4 -6 -1 -9 6 -9c5 0 10 1 15 3
c15 8 30 2 44 -3c5 -2 8 -5 11 -10c3 -4 3 -8 -2 -10c-11 -5 -21 -10 -33 -14c-25 -7 -51 -6 -76 -12c-7 -2 -13 1 -18 6s-10 9 -16 11c-3 6 -6 12 -8 18c9 44 18 88 31 131c6 20 15 40 24 59c11 26 18 53 27 80c15 43 27 87 45 129c6 13 9 28 15 41c12 25 18 52 33 76l3 7
c4 8 2 12 -6 12c-14 1 -29 1 -42 0c-10 -1 -19 -1 -26 5l-6 23c1 2 1 3 2 4l88 3c8 0 15 1 23 1z" />
    <glyph glyph-name="a" unicode="a" horiz-adv-x="403" 
d="M184 364c17 -6 37 -6 52 -18c5 -4 9 -4 12 2c2 3 5 6 8 7c10 8 24 2 26 -10c2 -13 5 -26 1 -40c-4 -12 -3 -25 0 -38c4 -14 4 -29 3 -43c-4 -39 -6 -78 -7 -118c-1 -20 -6 -40 -2 -60c14 10 20 26 26 41c11 25 25 50 32 77c1 2 2 5 4 7c1 3 4 4 8 4c4 -2 7 -5 5 -10
c-1 -8 -2 -16 -4 -24c-6 -25 -15 -49 -25 -74c-8 -15 -19 -29 -28 -44c-5 -6 -11 -10 -19 -9c-23 5 -43 11 -51 36c-2 4 -3 9 -6 14c-9 -9 -15 -19 -20 -29c-4 -5 -6 -10 -11 -15c-14 -15 -29 -31 -54 -25c-30 6 -56 18 -67 48c-20 48 -20 99 -10 149c5 23 13 45 25 65
c14 29 27 58 49 83c5 6 11 13 18 18c11 7 22 12 35 6zM206 333c-7 1 -10 -7 -14 -13c-20 -48 -44 -95 -57 -146c-6 -23 -10 -46 -12 -70c-1 -8 -3 -16 -3 -25c0 -10 5 -23 3 -32c-1 -9 2 -16 5 -24c6 -9 11 -10 20 -4c9 7 18 15 23 24c19 30 36 61 42 96c9 53 7 106 13 159
v4c-1 7 -3 13 -7 19c-3 4 -6 13 -13 12z" />
    <glyph glyph-name="aacute" unicode="&#xe1;" horiz-adv-x="403" 
d="M284 494c4 -2 4 -9 -4 -26c-9 -19 -14 -35 -35 -56l-4 -3c-4 -2 -9 -5 -14 -6c-2 0 -4 0 -7 -1c-15 0 -17 17 -7 37c1 2 1 5 2 7c7 14 17 37 31 45c17 9 29 10 38 3zM184 364c17 -6 37 -6 52 -18c5 -4 9 -4 12 2c2 3 5 6 8 7c10 8 24 2 26 -10c2 -13 5 -26 1 -40
c-4 -12 -3 -25 0 -38c4 -14 4 -29 3 -43c-4 -39 -6 -78 -7 -118c-1 -20 -6 -40 -2 -60c14 10 20 26 26 41c11 25 25 50 32 77c1 2 2 5 4 7c1 3 4 4 8 4c4 -2 7 -5 5 -10c-1 -8 -2 -16 -4 -24c-6 -25 -15 -49 -25 -74c-8 -15 -19 -29 -28 -44c-5 -6 -11 -10 -19 -9
c-23 5 -43 11 -51 36c-2 4 -3 9 -6 14c-9 -9 -15 -19 -20 -29c-4 -5 -6 -10 -11 -15c-14 -15 -29 -31 -54 -25c-30 6 -56 18 -67 48c-20 48 -20 99 -10 149c5 23 13 45 25 65c14 29 27 58 49 83c5 6 11 13 18 18c11 7 22 12 35 6zM206 333c-7 1 -10 -7 -14 -13
c-20 -48 -44 -95 -57 -146c-6 -23 -10 -46 -12 -70c-1 -8 -3 -16 -3 -25c0 -10 5 -23 3 -32c-1 -9 2 -16 5 -24c6 -9 11 -10 20 -4c9 7 18 15 23 24c19 30 36 61 42 96c9 53 7 106 13 159v4c-1 7 -3 13 -7 19c-3 4 -6 13 -13 12z" />
    <glyph glyph-name="abreve" unicode="&#x103;" horiz-adv-x="403" 
d="M266 467c10 2 19 -2 23 -10c6 -11 2 -18 -5 -27c-14 -13 -41 -20 -60 -21c-14 2 -29 1 -42 10c-9 6 -18 11 -25 18c-5 6 -14 16 -12 25c0 5 2 5 6 5c7 -2 14 -5 18 -10c13 -15 30 -16 49 -14c10 1 20 3 28 9c6 5 12 12 20 15zM184 364c17 -6 37 -6 52 -18c5 -4 9 -4 12 2
c2 3 5 6 8 7c10 8 24 2 26 -10c2 -13 5 -26 1 -40c-4 -12 -3 -25 0 -38c4 -14 4 -29 3 -43c-4 -39 -6 -78 -7 -118c-1 -20 -6 -40 -2 -60c14 10 20 26 26 41c11 25 25 50 32 77c1 2 2 5 4 7c1 3 4 4 8 4c4 -2 7 -5 5 -10c-1 -8 -2 -16 -4 -24c-6 -25 -15 -49 -25 -74
c-8 -15 -19 -29 -28 -44c-5 -6 -11 -10 -19 -9c-23 5 -43 11 -51 36c-2 4 -3 9 -6 14c-9 -9 -15 -19 -20 -29c-4 -5 -6 -10 -11 -15c-14 -15 -29 -31 -54 -25c-30 6 -56 18 -67 48c-20 48 -20 99 -10 149c5 23 13 45 25 65c14 29 27 58 49 83c5 6 11 13 18 18
c11 7 22 12 35 6zM206 333c-7 1 -10 -7 -14 -13c-20 -48 -44 -95 -57 -146c-6 -23 -10 -46 -12 -70c-1 -8 -3 -16 -3 -25c0 -10 5 -23 3 -32c-1 -9 2 -16 5 -24c6 -9 11 -10 20 -4c9 7 18 15 23 24c19 30 36 61 42 96c9 53 7 106 13 159v4c-1 7 -3 13 -7 19
c-3 4 -6 13 -13 12z" />
    <glyph glyph-name="abreveacute" unicode="&#x1eaf;" horiz-adv-x="403" 
d="M307 572c4 -2 4 -9 -4 -26c-9 -19 -14 -35 -35 -56l-4 -3c-4 -2 -9 -5 -14 -6c-2 0 -4 0 -7 -1c-15 0 -17 17 -7 37c1 2 1 5 2 7c7 14 17 37 31 45c17 9 29 10 38 3zM292 459c10 2 19 -2 23 -10c6 -11 2 -18 -5 -27c-14 -13 -41 -20 -60 -21c-14 2 -29 1 -42 10
c-9 6 -18 11 -25 18c-5 6 -14 16 -12 25c0 5 2 5 6 5c7 -2 14 -5 18 -10c13 -15 30 -16 49 -14c10 1 20 3 28 9c6 5 12 12 20 15zM184 364c17 -6 37 -6 52 -18c5 -4 9 -4 12 2c2 3 5 6 8 7c10 8 24 2 26 -10c2 -13 5 -26 1 -40c-4 -12 -3 -25 0 -38c4 -14 4 -29 3 -43
c-4 -39 -6 -78 -7 -118c-1 -20 -6 -40 -2 -60c14 10 20 26 26 41c11 25 25 50 32 77c1 2 2 5 4 7c1 3 4 4 8 4c4 -2 7 -5 5 -10c-1 -8 -2 -16 -4 -24c-6 -25 -15 -49 -25 -74c-8 -15 -19 -29 -28 -44c-5 -6 -11 -10 -19 -9c-23 5 -43 11 -51 36c-2 4 -3 9 -6 14
c-9 -9 -15 -19 -20 -29c-4 -5 -6 -10 -11 -15c-14 -15 -29 -31 -54 -25c-30 6 -56 18 -67 48c-20 48 -20 99 -10 149c5 23 13 45 25 65c14 29 27 58 49 83c5 6 11 13 18 18c11 7 22 12 35 6zM206 333c-7 1 -10 -7 -14 -13c-20 -48 -44 -95 -57 -146c-6 -23 -10 -46 -12 -70
c-1 -8 -3 -16 -3 -25c0 -10 5 -23 3 -32c-1 -9 2 -16 5 -24c6 -9 11 -10 20 -4c9 7 18 15 23 24c19 30 36 61 42 96c9 53 7 106 13 159v4c-1 7 -3 13 -7 19c-3 4 -6 13 -13 12z" />
    <glyph glyph-name="abrevegrave" unicode="&#x1eb1;" horiz-adv-x="403" 
d="M195 605c3 -2 8 -2 10 -5c8 -11 20 -14 29 -22c7 -6 15 -11 21 -20c3 -5 8 -6 11 -9c5 -3 9 -8 15 -11c5 -2 6 -8 11 -11c2 -2 1 -5 -1 -6c-3 -2 -4 -5 -3 -9c1 -3 -2 -7 -3 -8c-4 -3 -4 -8 -5 -13c-1 -8 -12 -10 -18 -5l-27 27c-4 4 -9 8 -10 11c-2 5 -6 3 -8 6
c-2 4 -5 6 -8 10c-7 12 -18 22 -24 35c-4 7 -7 13 -5 20c1 5 2 11 7 10c3 0 5 -4 8 0zM272 465c10 2 19 -2 23 -10c6 -11 2 -18 -5 -27c-14 -13 -41 -20 -60 -21c-14 2 -29 1 -42 10c-9 6 -18 11 -25 18c-5 6 -14 16 -12 25c0 5 2 5 6 5c7 -2 14 -5 18 -10
c13 -15 30 -16 49 -14c10 1 20 3 28 9c6 5 12 12 20 15zM184 364c17 -6 37 -6 52 -18c5 -4 9 -4 12 2c2 3 5 6 8 7c10 8 24 2 26 -10c2 -13 5 -26 1 -40c-4 -12 -3 -25 0 -38c4 -14 4 -29 3 -43c-4 -39 -6 -78 -7 -118c-1 -20 -6 -40 -2 -60c14 10 20 26 26 41
c11 25 25 50 32 77c1 2 2 5 4 7c1 3 4 4 8 4c4 -2 7 -5 5 -10c-1 -8 -2 -16 -4 -24c-6 -25 -15 -49 -25 -74c-8 -15 -19 -29 -28 -44c-5 -6 -11 -10 -19 -9c-23 5 -43 11 -51 36c-2 4 -3 9 -6 14c-9 -9 -15 -19 -20 -29c-4 -5 -6 -10 -11 -15c-14 -15 -29 -31 -54 -25
c-30 6 -56 18 -67 48c-20 48 -20 99 -10 149c5 23 13 45 25 65c14 29 27 58 49 83c5 6 11 13 18 18c11 7 22 12 35 6zM206 333c-7 1 -10 -7 -14 -13c-20 -48 -44 -95 -57 -146c-6 -23 -10 -46 -12 -70c-1 -8 -3 -16 -3 -25c0 -10 5 -23 3 -32c-1 -9 2 -16 5 -24
c6 -9 11 -10 20 -4c9 7 18 15 23 24c19 30 36 61 42 96c9 53 7 106 13 159v4c-1 7 -3 13 -7 19c-3 4 -6 13 -13 12z" />
    <glyph glyph-name="abrevetilde" unicode="&#x1eb5;" horiz-adv-x="403" 
d="M205 564c14 1 28 -5 41 -11c11 -7 19 -16 27 -25c8 -8 23 -9 33 -3c5 3 9 8 10 13c2 5 2 13 5 17c9 8 11 -9 11 -14c-1 -24 -20 -42 -42 -42c-4 1 -7 1 -10 2c-10 3 -17 10 -25 16c-5 3 -9 4 -13 6c-9 5 -18 7 -27 7c-16 1 -22 -9 -29 -23c-4 -8 -15 -18 -23 -12
c-8 5 -8 16 -6 25c4 13 10 21 17 31c9 8 20 12 31 13zM282 453c10 2 19 -2 23 -10c6 -11 2 -18 -5 -27c-14 -13 -41 -20 -60 -21c-14 2 -29 1 -42 10c-9 6 -18 11 -25 18c-5 6 -14 16 -12 25c0 5 2 5 6 5c7 -2 14 -5 18 -10c13 -15 30 -16 49 -14c10 1 20 3 28 9
c6 5 12 12 20 15zM184 364c17 -6 37 -6 52 -18c5 -4 9 -4 12 2c2 3 5 6 8 7c10 8 24 2 26 -10c2 -13 5 -26 1 -40c-4 -12 -3 -25 0 -38c4 -14 4 -29 3 -43c-4 -39 -6 -78 -7 -118c-1 -20 -6 -40 -2 -60c14 10 20 26 26 41c11 25 25 50 32 77c1 2 2 5 4 7c1 3 4 4 8 4
c4 -2 7 -5 5 -10c-1 -8 -2 -16 -4 -24c-6 -25 -15 -49 -25 -74c-8 -15 -19 -29 -28 -44c-5 -6 -11 -10 -19 -9c-23 5 -43 11 -51 36c-2 4 -3 9 -6 14c-9 -9 -15 -19 -20 -29c-4 -5 -6 -10 -11 -15c-14 -15 -29 -31 -54 -25c-30 6 -56 18 -67 48c-20 48 -20 99 -10 149
c5 23 13 45 25 65c14 29 27 58 49 83c5 6 11 13 18 18c11 7 22 12 35 6zM206 333c-7 1 -10 -7 -14 -13c-20 -48 -44 -95 -57 -146c-6 -23 -10 -46 -12 -70c-1 -8 -3 -16 -3 -25c0 -10 5 -23 3 -32c-1 -9 2 -16 5 -24c6 -9 11 -10 20 -4c9 7 18 15 23 24c19 30 36 61 42 96
c9 53 7 106 13 159v4c-1 7 -3 13 -7 19c-3 4 -6 13 -13 12z" />
    <glyph glyph-name="acaron" unicode="&#x1ce;" horiz-adv-x="403" 
d="M160 536c8 -6 14 -12 20 -19l1 -1c19 -24 41 -45 59 -69c5 -5 5 -5 9 0c8 9 13 19 19 29c8 10 27 36 35 46c5 3 6 5 9 8c3 4 6 6 10 5c4 0 8 -3 5 -7c-4 -7 -5 -15 -12 -19c-4 -4 -17 -23 -20 -26c-9 -11 -19 -22 -24 -34c-2 -5 -6 -10 -12 -14l-14 -14
c-6 -8 -16 -9 -24 -9c-6 0 -8 1 -10 4c-8 12 -17 22 -28 33c-9 10 -17 20 -25 30c-7 7 -14 15 -20 24c-2 4 -4 7 0 11c3 5 6 9 10 14l6 7c2 0 4 1 6 1zM184 364c17 -6 37 -6 52 -18c5 -4 9 -4 12 2c2 3 5 6 8 7c10 8 24 2 26 -10c2 -13 5 -26 1 -40c-4 -12 -3 -25 0 -38
c4 -14 4 -29 3 -43c-4 -39 -6 -78 -7 -118c-1 -20 -6 -40 -2 -60c14 10 20 26 26 41c11 25 25 50 32 77c1 2 2 5 4 7c1 3 4 4 8 4c4 -2 7 -5 5 -10c-1 -8 -2 -16 -4 -24c-6 -25 -15 -49 -25 -74c-8 -15 -19 -29 -28 -44c-5 -6 -11 -10 -19 -9c-23 5 -43 11 -51 36
c-2 4 -3 9 -6 14c-9 -9 -15 -19 -20 -29c-4 -5 -6 -10 -11 -15c-14 -15 -29 -31 -54 -25c-30 6 -56 18 -67 48c-20 48 -20 99 -10 149c5 23 13 45 25 65c14 29 27 58 49 83c5 6 11 13 18 18c11 7 22 12 35 6zM206 333c-7 1 -10 -7 -14 -13c-20 -48 -44 -95 -57 -146
c-6 -23 -10 -46 -12 -70c-1 -8 -3 -16 -3 -25c0 -10 5 -23 3 -32c-1 -9 2 -16 5 -24c6 -9 11 -10 20 -4c9 7 18 15 23 24c19 30 36 61 42 96c9 53 7 106 13 159v4c-1 7 -3 13 -7 19c-3 4 -6 13 -13 12z" />
    <glyph glyph-name="acircumflex" unicode="&#xe2;" horiz-adv-x="403" 
d="M228 523c6 0 8 -2 10 -5c7 -12 16 -23 26 -34c8 -10 16 -21 24 -32c6 -7 13 -15 18 -24c2 -4 3 -7 0 -11c-3 -5 -7 -9 -11 -14c-2 -2 -4 -5 -7 -7h-6c-7 6 -13 13 -18 20l-1 1c-18 25 -39 47 -56 72c-4 5 -4 5 -9 0c-8 -8 -14 -18 -21 -27c-7 -11 -28 -35 -37 -44
c-4 -3 -6 -6 -9 -9s-6 -5 -10 -4c-4 0 -8 4 -5 8c4 6 6 14 13 18c4 3 19 22 22 25c9 10 19 20 25 33c3 5 7 9 12 13s10 8 15 13c7 7 17 9 25 8zM184 364c17 -6 37 -6 52 -18c5 -4 9 -4 12 2c2 3 5 6 8 7c10 8 24 2 26 -10c2 -13 5 -26 1 -40c-4 -12 -3 -25 0 -38
c4 -14 4 -29 3 -43c-4 -39 -6 -78 -7 -118c-1 -20 -6 -40 -2 -60c14 10 20 26 26 41c11 25 25 50 32 77c1 2 2 5 4 7c1 3 4 4 8 4c4 -2 7 -5 5 -10c-1 -8 -2 -16 -4 -24c-6 -25 -15 -49 -25 -74c-8 -15 -19 -29 -28 -44c-5 -6 -11 -10 -19 -9c-23 5 -43 11 -51 36
c-2 4 -3 9 -6 14c-9 -9 -15 -19 -20 -29c-4 -5 -6 -10 -11 -15c-14 -15 -29 -31 -54 -25c-30 6 -56 18 -67 48c-20 48 -20 99 -10 149c5 23 13 45 25 65c14 29 27 58 49 83c5 6 11 13 18 18c11 7 22 12 35 6zM206 333c-7 1 -10 -7 -14 -13c-20 -48 -44 -95 -57 -146
c-6 -23 -10 -46 -12 -70c-1 -8 -3 -16 -3 -25c0 -10 5 -23 3 -32c-1 -9 2 -16 5 -24c6 -9 11 -10 20 -4c9 7 18 15 23 24c19 30 36 61 42 96c9 53 7 106 13 159v4c-1 7 -3 13 -7 19c-3 4 -6 13 -13 12z" />
    <glyph glyph-name="acircumflexacute" unicode="&#x1ea5;" horiz-adv-x="403" 
d="M310 659c4 -2 4 -9 -4 -26c-9 -19 -14 -35 -35 -56l-4 -3c-4 -2 -9 -5 -14 -6c-2 0 -4 0 -7 -1c-15 0 -17 17 -7 37c1 2 1 5 2 7c7 14 17 37 31 45c17 9 29 10 38 3zM242 529c6 0 8 -2 10 -5c7 -12 16 -23 26 -34c8 -10 16 -21 24 -32c6 -7 13 -15 18 -24
c2 -4 3 -7 0 -11c-3 -5 -7 -9 -11 -14c-2 -2 -4 -5 -7 -7h-6c-7 6 -13 13 -18 20l-1 1c-18 25 -39 47 -56 72c-4 5 -4 5 -9 0c-8 -8 -14 -18 -21 -27c-7 -11 -28 -35 -37 -44c-4 -3 -6 -6 -9 -9s-6 -5 -10 -4c-4 0 -8 4 -5 8c4 6 6 14 13 18c4 3 19 22 22 25
c9 10 19 20 25 33c3 5 7 9 12 13s10 8 15 13c7 7 17 9 25 8zM184 364c17 -6 37 -6 52 -18c5 -4 9 -4 12 2c2 3 5 6 8 7c10 8 24 2 26 -10c2 -13 5 -26 1 -40c-4 -12 -3 -25 0 -38c4 -14 4 -29 3 -43c-4 -39 -6 -78 -7 -118c-1 -20 -6 -40 -2 -60c14 10 20 26 26 41
c11 25 25 50 32 77c1 2 2 5 4 7c1 3 4 4 8 4c4 -2 7 -5 5 -10c-1 -8 -2 -16 -4 -24c-6 -25 -15 -49 -25 -74c-8 -15 -19 -29 -28 -44c-5 -6 -11 -10 -19 -9c-23 5 -43 11 -51 36c-2 4 -3 9 -6 14c-9 -9 -15 -19 -20 -29c-4 -5 -6 -10 -11 -15c-14 -15 -29 -31 -54 -25
c-30 6 -56 18 -67 48c-20 48 -20 99 -10 149c5 23 13 45 25 65c14 29 27 58 49 83c5 6 11 13 18 18c11 7 22 12 35 6zM206 333c-7 1 -10 -7 -14 -13c-20 -48 -44 -95 -57 -146c-6 -23 -10 -46 -12 -70c-1 -8 -3 -16 -3 -25c0 -10 5 -23 3 -32c-1 -9 2 -16 5 -24
c6 -9 11 -10 20 -4c9 7 18 15 23 24c19 30 36 61 42 96c9 53 7 106 13 159v4c-1 7 -3 13 -7 19c-3 4 -6 13 -13 12z" />
    <glyph glyph-name="acircumflexgrave" unicode="&#x1ea7;" horiz-adv-x="403" 
d="M225 649c3 -2 8 -2 10 -5c8 -11 20 -14 29 -22c7 -6 15 -11 21 -20c3 -5 8 -6 11 -9c5 -3 9 -8 15 -11c5 -2 6 -8 11 -11c2 -2 1 -5 -1 -6c-3 -2 -4 -5 -3 -9c1 -3 -2 -7 -3 -8c-4 -3 -4 -8 -5 -13c-1 -8 -12 -10 -18 -5l-27 27c-4 4 -9 8 -10 11c-2 5 -6 3 -8 6
c-2 4 -5 6 -8 10c-7 12 -18 22 -24 35c-4 7 -7 13 -5 20c1 5 2 11 7 10c3 0 5 -4 8 0zM258 505c6 0 8 -2 10 -5c7 -12 16 -23 26 -34c8 -10 16 -21 24 -32c6 -7 13 -15 18 -24c2 -4 3 -7 0 -11c-3 -5 -7 -9 -11 -14c-2 -2 -4 -5 -7 -7h-6c-7 6 -13 13 -18 20l-1 1
c-18 25 -39 47 -56 72c-4 5 -4 5 -9 0c-8 -8 -14 -18 -21 -27c-7 -11 -28 -35 -37 -44c-4 -3 -6 -6 -9 -9s-6 -5 -10 -4c-4 0 -8 4 -5 8c4 6 6 14 13 18c4 3 19 22 22 25c9 10 19 20 25 33c3 5 7 9 12 13s10 8 15 13c7 7 17 9 25 8zM184 364c17 -6 37 -6 52 -18
c5 -4 9 -4 12 2c2 3 5 6 8 7c10 8 24 2 26 -10c2 -13 5 -26 1 -40c-4 -12 -3 -25 0 -38c4 -14 4 -29 3 -43c-4 -39 -6 -78 -7 -118c-1 -20 -6 -40 -2 -60c14 10 20 26 26 41c11 25 25 50 32 77c1 2 2 5 4 7c1 3 4 4 8 4c4 -2 7 -5 5 -10c-1 -8 -2 -16 -4 -24
c-6 -25 -15 -49 -25 -74c-8 -15 -19 -29 -28 -44c-5 -6 -11 -10 -19 -9c-23 5 -43 11 -51 36c-2 4 -3 9 -6 14c-9 -9 -15 -19 -20 -29c-4 -5 -6 -10 -11 -15c-14 -15 -29 -31 -54 -25c-30 6 -56 18 -67 48c-20 48 -20 99 -10 149c5 23 13 45 25 65c14 29 27 58 49 83
c5 6 11 13 18 18c11 7 22 12 35 6zM206 333c-7 1 -10 -7 -14 -13c-20 -48 -44 -95 -57 -146c-6 -23 -10 -46 -12 -70c-1 -8 -3 -16 -3 -25c0 -10 5 -23 3 -32c-1 -9 2 -16 5 -24c6 -9 11 -10 20 -4c9 7 18 15 23 24c19 30 36 61 42 96c9 53 7 106 13 159v4c-1 7 -3 13 -7 19
c-3 4 -6 13 -13 12z" />
    <glyph glyph-name="acircumflextilde" unicode="&#x1eab;" horiz-adv-x="403" 
d="M219 610c14 1 28 -5 41 -11c11 -7 19 -16 27 -25c8 -8 23 -9 33 -3c5 3 9 8 10 13c2 5 2 13 5 17c9 8 11 -9 11 -14c-1 -24 -20 -42 -42 -42c-4 1 -7 1 -10 2c-10 3 -17 10 -25 16c-5 3 -9 4 -13 6c-9 5 -18 7 -27 7c-16 1 -22 -9 -29 -23c-4 -8 -15 -18 -23 -12
c-8 5 -8 16 -6 25c4 13 10 21 17 31c9 8 20 12 31 13zM255 511c6 0 8 -2 10 -5c7 -12 16 -23 26 -34c8 -10 16 -21 24 -32c6 -7 13 -15 18 -24c2 -4 3 -7 0 -11c-3 -5 -7 -9 -11 -14c-2 -2 -4 -5 -7 -7h-6c-7 6 -13 13 -18 20l-1 1c-18 25 -39 47 -56 72c-4 5 -4 5 -9 0
c-8 -8 -14 -18 -21 -27c-7 -11 -28 -35 -37 -44c-4 -3 -6 -6 -9 -9s-6 -5 -10 -4c-4 0 -8 4 -5 8c4 6 6 14 13 18c4 3 19 22 22 25c9 10 19 20 25 33c3 5 7 9 12 13s10 8 15 13c7 7 17 9 25 8zM184 364c17 -6 37 -6 52 -18c5 -4 9 -4 12 2c2 3 5 6 8 7c10 8 24 2 26 -10
c2 -13 5 -26 1 -40c-4 -12 -3 -25 0 -38c4 -14 4 -29 3 -43c-4 -39 -6 -78 -7 -118c-1 -20 -6 -40 -2 -60c14 10 20 26 26 41c11 25 25 50 32 77c1 2 2 5 4 7c1 3 4 4 8 4c4 -2 7 -5 5 -10c-1 -8 -2 -16 -4 -24c-6 -25 -15 -49 -25 -74c-8 -15 -19 -29 -28 -44
c-5 -6 -11 -10 -19 -9c-23 5 -43 11 -51 36c-2 4 -3 9 -6 14c-9 -9 -15 -19 -20 -29c-4 -5 -6 -10 -11 -15c-14 -15 -29 -31 -54 -25c-30 6 -56 18 -67 48c-20 48 -20 99 -10 149c5 23 13 45 25 65c14 29 27 58 49 83c5 6 11 13 18 18c11 7 22 12 35 6zM206 333
c-7 1 -10 -7 -14 -13c-20 -48 -44 -95 -57 -146c-6 -23 -10 -46 -12 -70c-1 -8 -3 -16 -3 -25c0 -10 5 -23 3 -32c-1 -9 2 -16 5 -24c6 -9 11 -10 20 -4c9 7 18 15 23 24c19 30 36 61 42 96c9 53 7 106 13 159v4c-1 7 -3 13 -7 19c-3 4 -6 13 -13 12z" />
    <glyph glyph-name="adieresis" unicode="&#xe4;" horiz-adv-x="403" 
d="M166 467c10 10 25 6 26 -7c2 -9 8 -18 9 -28c0 -7 -4 -13 -4 -19c0 -2 0 -3 -2 -3c-5 2 -10 -6 -15 -2c-8 -1 -11 2 -15 7c-8 9 -13 17 -12 29c2 10 6 17 13 23zM256 467c9 10 24 6 26 -7c2 -9 8 -18 9 -28c1 -7 -4 -13 -3 -19c0 -2 -1 -3 -3 -3c-6 2 -10 -6 -15 -2
c-8 -1 -11 2 -15 7c-8 9 -12 17 -11 29c1 10 5 17 12 23zM184 364c17 -6 37 -6 52 -18c5 -4 9 -4 12 2c2 3 5 6 8 7c10 8 24 2 26 -10c2 -13 5 -26 1 -40c-4 -12 -3 -25 0 -38c4 -14 4 -29 3 -43c-4 -39 -6 -78 -7 -118c-1 -20 -6 -40 -2 -60c14 10 20 26 26 41
c11 25 25 50 32 77c1 2 2 5 4 7c1 3 4 4 8 4c4 -2 7 -5 5 -10c-1 -8 -2 -16 -4 -24c-6 -25 -15 -49 -25 -74c-8 -15 -19 -29 -28 -44c-5 -6 -11 -10 -19 -9c-23 5 -43 11 -51 36c-2 4 -3 9 -6 14c-9 -9 -15 -19 -20 -29c-4 -5 -6 -10 -11 -15c-14 -15 -29 -31 -54 -25
c-30 6 -56 18 -67 48c-20 48 -20 99 -10 149c5 23 13 45 25 65c14 29 27 58 49 83c5 6 11 13 18 18c11 7 22 12 35 6zM206 333c-7 1 -10 -7 -14 -13c-20 -48 -44 -95 -57 -146c-6 -23 -10 -46 -12 -70c-1 -8 -3 -16 -3 -25c0 -10 5 -23 3 -32c-1 -9 2 -16 5 -24
c6 -9 11 -10 20 -4c9 7 18 15 23 24c19 30 36 61 42 96c9 53 7 106 13 159v4c-1 7 -3 13 -7 19c-3 4 -6 13 -13 12z" />
    <glyph glyph-name="agrave" unicode="&#xe0;" horiz-adv-x="403" 
d="M177 537c3 -2 8 -2 10 -5c8 -11 20 -14 29 -22c7 -6 15 -11 21 -20c3 -5 8 -6 11 -9c5 -3 9 -8 15 -11c5 -2 6 -8 11 -11c2 -2 1 -5 -1 -6c-3 -2 -4 -5 -3 -9c1 -3 -2 -7 -3 -8c-4 -3 -4 -8 -5 -13c-1 -8 -12 -10 -18 -5l-27 27c-4 4 -9 8 -10 11c-2 5 -6 3 -8 6
c-2 4 -5 6 -8 10c-7 12 -18 22 -24 35c-4 7 -7 13 -5 20c1 5 2 11 7 10c3 0 5 -4 8 0zM184 364c17 -6 37 -6 52 -18c5 -4 9 -4 12 2c2 3 5 6 8 7c10 8 24 2 26 -10c2 -13 5 -26 1 -40c-4 -12 -3 -25 0 -38c4 -14 4 -29 3 -43c-4 -39 -6 -78 -7 -118c-1 -20 -6 -40 -2 -60
c14 10 20 26 26 41c11 25 25 50 32 77c1 2 2 5 4 7c1 3 4 4 8 4c4 -2 7 -5 5 -10c-1 -8 -2 -16 -4 -24c-6 -25 -15 -49 -25 -74c-8 -15 -19 -29 -28 -44c-5 -6 -11 -10 -19 -9c-23 5 -43 11 -51 36c-2 4 -3 9 -6 14c-9 -9 -15 -19 -20 -29c-4 -5 -6 -10 -11 -15
c-14 -15 -29 -31 -54 -25c-30 6 -56 18 -67 48c-20 48 -20 99 -10 149c5 23 13 45 25 65c14 29 27 58 49 83c5 6 11 13 18 18c11 7 22 12 35 6zM206 333c-7 1 -10 -7 -14 -13c-20 -48 -44 -95 -57 -146c-6 -23 -10 -46 -12 -70c-1 -8 -3 -16 -3 -25c0 -10 5 -23 3 -32
c-1 -9 2 -16 5 -24c6 -9 11 -10 20 -4c9 7 18 15 23 24c19 30 36 61 42 96c9 53 7 106 13 159v4c-1 7 -3 13 -7 19c-3 4 -6 13 -13 12z" />
    <glyph glyph-name="amacron" unicode="&#x101;" horiz-adv-x="403" 
d="M277 462c8 -3 9 -13 18 -16c7 -14 -1 -15 -11 -21c-10 -1 -17 3 -26 3c-15 1 -30 -3 -45 -4c-87 -3 -121 -16 -116 16c2 13 89 -2 106 7c13 5 33 7 48 12c9 2 17 7 26 3zM184 364c17 -6 37 -6 52 -18c5 -4 9 -4 12 2c2 3 5 6 8 7c10 8 24 2 26 -10c2 -13 5 -26 1 -40
c-4 -12 -3 -25 0 -38c4 -14 4 -29 3 -43c-4 -39 -6 -78 -7 -118c-1 -20 -6 -40 -2 -60c14 10 20 26 26 41c11 25 25 50 32 77c1 2 2 5 4 7c1 3 4 4 8 4c4 -2 7 -5 5 -10c-1 -8 -2 -16 -4 -24c-6 -25 -15 -49 -25 -74c-8 -15 -19 -29 -28 -44c-5 -6 -11 -10 -19 -9
c-23 5 -43 11 -51 36c-2 4 -3 9 -6 14c-9 -9 -15 -19 -20 -29c-4 -5 -6 -10 -11 -15c-14 -15 -29 -31 -54 -25c-30 6 -56 18 -67 48c-20 48 -20 99 -10 149c5 23 13 45 25 65c14 29 27 58 49 83c5 6 11 13 18 18c11 7 22 12 35 6zM206 333c-7 1 -10 -7 -14 -13
c-20 -48 -44 -95 -57 -146c-6 -23 -10 -46 -12 -70c-1 -8 -3 -16 -3 -25c0 -10 5 -23 3 -32c-1 -9 2 -16 5 -24c6 -9 11 -10 20 -4c9 7 18 15 23 24c19 30 36 61 42 96c9 53 7 106 13 159v4c-1 7 -3 13 -7 19c-3 4 -6 13 -13 12z" />
    <glyph glyph-name="aogonek" unicode="&#x105;" horiz-adv-x="403" 
d="M295 23l-6 -6c4 0 9 -4 6 -8c-1 -2 -3 -4 -5 -5l-4 -4l-5 -9c-4 -9 -5 -19 -3 -27c1 -8 3 -14 12 -14c8 -1 15 -6 22 0c6 4 8 9 16 9c6 1 13 -3 15 -9c1 -3 3 -6 4 -9c5 -8 3 -14 -6 -21c-22 -12 -44 -18 -66 -10c-8 3 -12 10 -17 17c-1 1 -2 2 -3 5c-7 6 -9 16 -9 24
c1 14 2 24 10 36c6 9 14 17 23 22h-3c-23 5 -43 11 -51 36c-2 4 -3 9 -6 14c-9 -9 -15 -19 -20 -29c-4 -5 -6 -10 -11 -15c-14 -15 -29 -31 -54 -25c-30 6 -56 18 -67 48c-20 48 -20 99 -10 149c5 23 13 45 25 65c14 29 27 58 49 83c5 6 11 13 18 18c11 7 22 12 35 6
c17 -6 37 -6 52 -18c5 -4 9 -4 12 2c2 3 5 6 8 7c10 8 24 2 26 -10c2 -13 5 -26 1 -40c-4 -12 -3 -25 0 -38c4 -14 4 -29 3 -43c-4 -39 -6 -78 -7 -118c-1 -20 -6 -40 -2 -60c14 10 20 26 26 41c11 25 25 50 32 77c1 2 2 5 4 7c1 3 4 4 8 4c4 -2 7 -5 5 -10
c-1 -8 -2 -16 -4 -24c-6 -25 -15 -49 -25 -74c-8 -15 -19 -29 -28 -44zM226 298v4c-1 7 -3 13 -7 19c-3 4 -6 13 -13 12c-7 1 -10 -7 -14 -13c-20 -48 -44 -95 -57 -146c-6 -23 -10 -46 -12 -70c-1 -8 -3 -16 -3 -25c0 -10 5 -23 3 -32c-1 -9 2 -16 5 -24c6 -9 11 -10 20 -4
c9 7 18 15 23 24c19 30 36 61 42 96c9 53 7 106 13 159z" />
    <glyph glyph-name="aring" unicode="&#xe5;" horiz-adv-x="403" 
d="M196 587c8 4 17 -1 24 -6c17 -12 31 -27 37 -54c3 -16 1 -33 -2 -50c-2 -13 -6 -22 -12 -30c-7 -11 -16 -21 -28 -20c-18 2 -32 15 -43 38c-2 6 -6 12 -9 18c-6 10 -8 23 -7 36c1 23 6 43 21 56c6 5 12 9 19 12zM219 553c-3 -4 -5 -11 -8 -12c-6 -2 -10 -8 -14 -12
c-7 -8 -13 -38 -10 -49c4 -16 18 -30 28 -30c7 -1 13 3 17 9c6 9 10 19 14 29c6 17 3 43 -6 56c-2 3 -5 4 -7 8c-3 6 -9 5 -14 1zM184 364c17 -6 37 -6 52 -18c5 -4 9 -4 12 2c2 3 5 6 8 7c10 8 24 2 26 -10c2 -13 5 -26 1 -40c-4 -12 -3 -25 0 -38c4 -14 4 -29 3 -43
c-4 -39 -6 -78 -7 -118c-1 -20 -6 -40 -2 -60c14 10 20 26 26 41c11 25 25 50 32 77c1 2 2 5 4 7c1 3 4 4 8 4c4 -2 7 -5 5 -10c-1 -8 -2 -16 -4 -24c-6 -25 -15 -49 -25 -74c-8 -15 -19 -29 -28 -44c-5 -6 -11 -10 -19 -9c-23 5 -43 11 -51 36c-2 4 -3 9 -6 14
c-9 -9 -15 -19 -20 -29c-4 -5 -6 -10 -11 -15c-14 -15 -29 -31 -54 -25c-30 6 -56 18 -67 48c-20 48 -20 99 -10 149c5 23 13 45 25 65c14 29 27 58 49 83c5 6 11 13 18 18c11 7 22 12 35 6zM206 333c-7 1 -10 -7 -14 -13c-20 -48 -44 -95 -57 -146c-6 -23 -10 -46 -12 -70
c-1 -8 -3 -16 -3 -25c0 -10 5 -23 3 -32c-1 -9 2 -16 5 -24c6 -9 11 -10 20 -4c9 7 18 15 23 24c19 30 36 61 42 96c9 53 7 106 13 159v4c-1 7 -3 13 -7 19c-3 4 -6 13 -13 12z" />
    <glyph glyph-name="atilde" unicode="&#xe3;" horiz-adv-x="403" 
d="M178 496c14 1 28 -5 41 -11c11 -7 19 -16 27 -25c8 -8 23 -9 33 -3c5 3 9 8 10 13c2 5 2 13 5 17c9 8 11 -9 11 -14c-1 -24 -20 -42 -42 -42c-4 1 -7 1 -10 2c-10 3 -17 10 -25 16c-5 3 -9 4 -13 6c-9 5 -18 7 -27 7c-16 1 -22 -9 -29 -23c-4 -8 -15 -18 -23 -12
c-8 5 -8 16 -6 25c4 13 10 21 17 31c9 8 20 12 31 13zM184 364c17 -6 37 -6 52 -18c5 -4 9 -4 12 2c2 3 5 6 8 7c10 8 24 2 26 -10c2 -13 5 -26 1 -40c-4 -12 -3 -25 0 -38c4 -14 4 -29 3 -43c-4 -39 -6 -78 -7 -118c-1 -20 -6 -40 -2 -60c14 10 20 26 26 41
c11 25 25 50 32 77c1 2 2 5 4 7c1 3 4 4 8 4c4 -2 7 -5 5 -10c-1 -8 -2 -16 -4 -24c-6 -25 -15 -49 -25 -74c-8 -15 -19 -29 -28 -44c-5 -6 -11 -10 -19 -9c-23 5 -43 11 -51 36c-2 4 -3 9 -6 14c-9 -9 -15 -19 -20 -29c-4 -5 -6 -10 -11 -15c-14 -15 -29 -31 -54 -25
c-30 6 -56 18 -67 48c-20 48 -20 99 -10 149c5 23 13 45 25 65c14 29 27 58 49 83c5 6 11 13 18 18c11 7 22 12 35 6zM206 333c-7 1 -10 -7 -14 -13c-20 -48 -44 -95 -57 -146c-6 -23 -10 -46 -12 -70c-1 -8 -3 -16 -3 -25c0 -10 5 -23 3 -32c-1 -9 2 -16 5 -24
c6 -9 11 -10 20 -4c9 7 18 15 23 24c19 30 36 61 42 96c9 53 7 106 13 159v4c-1 7 -3 13 -7 19c-3 4 -6 13 -13 12z" />
    <glyph glyph-name="ae" unicode="&#xe6;" horiz-adv-x="441" 
d="M342 349c16 -9 30 -19 40 -36c12 -22 12 -45 1 -67c-18 -34 -45 -62 -71 -91c-8 -8 -18 -14 -27 -21c-13 -11 -21 -24 -21 -42c0 -16 -2 -32 -3 -48c0 -13 0 -28 13 -34c12 -6 25 0 36 7c21 16 33 39 46 62c3 5 6 12 10 17c2 4 7 5 11 3c4 -3 4 -7 2 -11
c-14 -32 -22 -68 -52 -91c-25 -20 -58 -23 -84 -4c-23 16 -35 30 -42 57c-4 -6 -9 -12 -13 -17s-7 -10 -12 -13c-16 -13 -33 -27 -57 -19c-29 9 -53 24 -61 55c-14 49 -14 120 36 149c17 11 43 17 63 23c19 6 39 10 59 13c3 7 5 14 8 21l7 29l2 16s0 1 -4 8l-1 2l-11 8
l-11 4c-9 0 -16 0 -25 -4c-10 -6 -16 -13 -21 -24c-4 -10 -8 -20 -16 -28s-24 -4 -18 14c1 16 11 34 18 47c18 31 91 31 117 3c2 -2 4 -3 6 -3l2 3c20 24 45 27 73 12zM341 302c-10 -14 -15 -32 -24 -47c-7 -13 -14 -26 -19 -39c-1 -2 -1 -4 -1 -5c-4 -15 -6 -30 -9 -45
c29 28 53 56 71 89c9 16 6 31 -1 46c-6 11 -10 11 -17 1zM207 204c-18 -4 -34 -11 -49 -22c-11 -9 -19 -19 -25 -32c-11 -34 3 18 -12 -39c-2 -9 -5 -17 -6 -25c-1 -10 2 -24 -1 -33c-2 -8 0 -16 3 -23c4 -10 9 -12 19 -7s19 12 26 21c12 16 24 31 34 49v5c2 31 4 68 11 106
z" />
    <glyph glyph-name="b" unicode="b" horiz-adv-x="390" 
d="M170 557c6 -1 12 -3 14 -9c9 -36 -57 -236 -57 -287c0 -12 -6 -23 -1 -35l18 35c15 29 32 56 52 81c17 21 38 33 66 32c22 -2 38 -15 51 -32c26 -33 34 -73 19 -110c-46 -112 -87 -181 -211 -232c-25 -10 -47 24 -55 47c-19 60 -19 121 -11 182c11 79 31 156 54 233
c6 22 16 43 20 66c5 21 27 31 41 29zM261 332c-24 13 -60 -39 -81 -72c-20 -30 -35 -63 -47 -98c-10 -34 -17 -55 -10 -84c1 -14 4 -15 16 -8c28 19 49 46 71 71c38 42 57 106 61 162c1 10 -2 25 -10 29z" />
    <glyph glyph-name="c" unicode="c" horiz-adv-x="274" 
d="M173 382l12 -2c21 -1 33 -12 37 -32c2 -8 2 -17 2 -25c1 -12 -3 -17 -11 -17c-10 1 -12 8 -12 16c1 8 -2 16 -5 24c-15 31 -47 -57 -54 -90c-9 -44 -40 -201 -8 -222c27 -19 57 30 67 50c2 5 3 14 11 11c7 -2 5 -11 3 -16c-8 -39 -30 -66 -68 -78c-6 -2 -13 -1 -20 1
c-41 13 -67 40 -74 84c-1 3 -1 6 -1 9c-3 25 -2 50 0 75c3 60 24 114 52 165l21 30c13 15 28 22 48 17z" />
    <glyph glyph-name="cacute" unicode="&#x107;" horiz-adv-x="274" 
d="M230 517c4 -2 4 -9 -4 -26c-9 -19 -14 -35 -35 -56l-4 -3c-4 -2 -9 -5 -14 -6c-2 0 -4 0 -7 -1c-15 0 -17 17 -7 37c1 2 1 5 2 7c7 14 17 37 31 45c17 9 29 10 38 3zM173 382l12 -2c21 -1 33 -12 37 -32c2 -8 2 -17 2 -25c1 -12 -3 -17 -11 -17c-10 1 -12 8 -12 16
c1 8 -2 16 -5 24c-15 31 -47 -57 -54 -90c-9 -44 -40 -201 -8 -222c27 -19 57 30 67 50c2 5 3 14 11 11c7 -2 5 -11 3 -16c-8 -39 -30 -66 -68 -78c-6 -2 -13 -1 -20 1c-41 13 -67 40 -74 84c-1 3 -1 6 -1 9c-3 25 -2 50 0 75c3 60 24 114 52 165l21 30c13 15 28 22 48 17z
" />
    <glyph glyph-name="ccaron" unicode="&#x10d;" horiz-adv-x="274" 
d="M105 531c8 -6 14 -12 20 -19l1 -1c19 -24 41 -45 59 -69c5 -5 5 -5 9 0c8 9 13 19 19 29c8 10 27 36 35 46c5 3 6 5 9 8c3 4 6 6 10 5c4 0 8 -3 5 -7c-4 -7 -5 -15 -12 -19c-4 -4 -17 -23 -20 -26c-9 -11 -19 -22 -24 -34c-2 -5 -6 -10 -12 -14l-14 -14
c-6 -8 -16 -9 -24 -9c-6 0 -8 1 -10 4c-8 12 -17 22 -28 33c-9 10 -17 20 -25 30c-7 7 -14 15 -20 24c-2 4 -4 7 0 11c3 5 6 9 10 14l6 7c2 0 4 1 6 1zM173 382l12 -2c21 -1 33 -12 37 -32c2 -8 2 -17 2 -25c1 -12 -3 -17 -11 -17c-10 1 -12 8 -12 16c1 8 -2 16 -5 24
c-15 31 -47 -57 -54 -90c-9 -44 -40 -201 -8 -222c27 -19 57 30 67 50c2 5 3 14 11 11c7 -2 5 -11 3 -16c-8 -39 -30 -66 -68 -78c-6 -2 -13 -1 -20 1c-41 13 -67 40 -74 84c-1 3 -1 6 -1 9c-3 25 -2 50 0 75c3 60 24 114 52 165l21 30c13 15 28 22 48 17z" />
    <glyph glyph-name="ccedilla" unicode="&#xe7;" horiz-adv-x="274" 
d="M241 -83c6 -12 -1 -34 -14 -42c-4 -4 -6 -9 -8 -13c-1 -4 -4 -8 -5 -14c0 -2 -3 -5 -6 -8c-11 -12 -27 -17 -43 -21c-4 -1 -8 0 -11 0c-8 2 -16 3 -24 5c-8 3 -13 10 -15 16c-3 7 -6 13 -5 20c1 2 1 4 4 5s4 -1 5 -2c6 -4 8 -9 9 -15c0 -2 1 -4 1 -5c6 -10 16 -11 25 -4
c10 9 18 18 26 28c10 12 12 25 9 39c-2 5 -6 8 -14 8c-14 0 -26 -4 -36 -14c-4 -3 -10 -4 -13 -8c0 -2 -4 -2 -5 -1c-5 4 -12 6 -14 12c0 1 0 2 -1 3c-15 15 -9 33 -7 50s7 34 12 52c-32 15 -52 40 -58 78c-1 3 -1 6 -1 9c-3 25 -2 50 0 75c3 60 24 114 52 165l21 30
c13 15 28 22 48 17l12 -2c21 -1 33 -12 37 -32c2 -8 2 -17 2 -25c1 -12 -3 -17 -11 -17c-10 1 -12 8 -12 16c1 8 -2 16 -5 24c-15 31 -47 -57 -54 -90c-9 -44 -40 -201 -8 -222c27 -19 57 30 67 50c2 5 3 14 11 11c7 -2 5 -11 3 -16c-8 -39 -30 -66 -68 -78h-1
c1 -3 1 -6 1 -9c-1 -14 -3 -30 -5 -46c0 -3 0 -6 -1 -8c0 -3 -2 -6 1 -6c2 -1 5 1 7 2c18 10 38 12 60 5c13 -4 26 -9 32 -22z" />
    <glyph glyph-name="cdotaccent" unicode="&#x10b;" horiz-adv-x="274" 
d="M175 508c9 9 23 5 25 -8c1 -9 8 -17 9 -27c0 -7 -3 -13 -3 -20c0 -1 -2 -2 -3 -1c-5 1 -10 -6 -14 -2c-8 -2 -11 2 -15 7c-8 8 -13 17 -11 28c1 9 5 17 12 23zM173 382l12 -2c21 -1 33 -12 37 -32c2 -8 2 -17 2 -25c1 -12 -3 -17 -11 -17c-10 1 -12 8 -12 16
c1 8 -2 16 -5 24c-15 31 -47 -57 -54 -90c-9 -44 -40 -201 -8 -222c27 -19 57 30 67 50c2 5 3 14 11 11c7 -2 5 -11 3 -16c-8 -39 -30 -66 -68 -78c-6 -2 -13 -1 -20 1c-41 13 -67 40 -74 84c-1 3 -1 6 -1 9c-3 25 -2 50 0 75c3 60 24 114 52 165l21 30c13 15 28 22 48 17z
" />
    <glyph glyph-name="d" unicode="d" horiz-adv-x="342" 
d="M273 558c15 -4 19 -13 19 -27c0 -20 -2 -40 -2 -59c-1 -32 -1 -63 -4 -94c-4 -43 -3 -86 -5 -129c-3 -39 -6 -78 -11 -117c-4 -24 -10 -47 -12 -71c-1 -6 -3 -18 -3 -27c-2 -6 -5 -13 -8 -19l-7 -6c-6 1 -12 1 -18 2c-7 7 -13 15 -16 24c-1 5 0 12 -8 19
c-8 -32 -29 -49 -53 -63c-18 -11 -36 -2 -52 8c-23 16 -38 47 -40 74c-2 33 -5 66 1 99c13 65 41 126 92 173c14 14 32 15 51 14c17 -1 23 -1 25 18c2 22 4 45 8 68c3 23 6 47 10 71c3 16 11 46 33 42zM213 317c-19 15 -49 -67 -53 -77c-17 -43 -34 -89 -40 -135
c-2 -16 -2 -32 0 -48c1 -10 4 -39 18 -40c12 0 27 30 30 39c19 40 29 87 40 130c8 33 9 68 12 101c1 9 0 25 -7 30z" />
    <glyph glyph-name="dcaron" unicode="&#x10f;" horiz-adv-x="342" 
d="M273 558c15 -4 19 -13 19 -27c0 -20 -2 -40 -2 -59c-1 -32 -1 -63 -4 -94c-4 -43 -3 -86 -5 -129c-3 -39 -6 -78 -11 -117c-4 -24 -10 -47 -12 -71c-1 -6 -3 -18 -3 -27c-2 -6 -5 -13 -8 -19l-7 -6c-6 1 -12 1 -18 2c-7 7 -13 15 -16 24c-1 5 0 12 -8 19
c-8 -32 -29 -49 -53 -63c-18 -11 -36 -2 -52 8c-23 16 -38 47 -40 74c-2 33 -5 66 1 99c13 65 41 126 92 173c14 14 32 15 51 14c17 -1 23 -1 25 18c2 22 4 45 8 68c3 23 6 47 10 71c3 16 11 46 33 42zM431 548c4 -2 4 -9 -4 -26c-9 -19 -14 -35 -35 -56l-4 -3
c-4 -2 -9 -5 -14 -6c-2 0 -4 0 -7 -1c-15 0 -17 17 -7 37c1 2 1 5 2 7c7 14 17 37 31 45c17 9 29 10 38 3zM213 317c-19 15 -49 -67 -53 -77c-17 -43 -34 -89 -40 -135c-2 -16 -2 -32 0 -48c1 -10 4 -39 18 -40c12 0 27 30 30 39c19 40 29 87 40 130c8 33 9 68 12 101
c1 9 0 25 -7 30z" />
    <glyph glyph-name="dcroat" unicode="&#x111;" horiz-adv-x="342" 
d="M353 426c7 -14 -1 -15 -11 -21c-10 -1 -17 3 -26 3c-9 1 -19 -1 -28 -2l-2 -28c-4 -43 -3 -86 -5 -129c-3 -39 -6 -78 -11 -117c-4 -24 -10 -47 -12 -71c-1 -6 -3 -18 -3 -27c-2 -6 -5 -13 -8 -19l-7 -6c-6 1 -12 1 -18 2c-7 7 -13 15 -16 24c-1 5 0 12 -8 19
c-8 -32 -29 -49 -53 -63c-18 -11 -36 -2 -52 8c-23 16 -38 47 -40 74c-2 33 -5 66 1 99c13 65 41 126 92 173c14 14 32 15 51 14c17 -1 23 -1 25 18l2 24c-52 -3 -73 -6 -69 19c1 9 41 5 72 4l3 21c3 23 6 47 10 71c3 16 11 46 33 42c15 -4 19 -13 19 -27
c0 -20 -2 -40 -2 -59l-1 -38c7 1 14 3 20 5c9 2 17 7 26 3c8 -3 9 -13 18 -16zM220 287c1 9 0 25 -7 30c-19 15 -49 -67 -53 -77c-17 -43 -34 -89 -40 -135c-2 -16 -2 -32 0 -48c1 -10 4 -39 18 -40c12 0 27 30 30 39c19 40 29 87 40 130c8 33 9 68 12 101z" />
    <glyph glyph-name="e" unicode="e" horiz-adv-x="295" 
d="M196 359c16 -9 30 -19 40 -36c12 -22 12 -44 1 -66c-18 -35 -45 -63 -71 -91c-8 -9 -18 -15 -27 -22c-13 -10 -21 -23 -21 -42c0 -16 -2 -31 -3 -47c0 -13 0 -28 13 -35c12 -5 25 0 36 8c21 15 33 38 46 61c3 6 6 12 10 18c2 3 7 5 11 2c4 -2 4 -7 2 -11
c-14 -31 -22 -67 -52 -90c-25 -20 -57 -23 -84 -4c-34 24 -44 43 -47 104c4 49 5 111 30 168c11 26 26 50 43 71c20 25 45 27 73 12zM195 313c-10 -15 -15 -33 -24 -48c-17 -29 -30 -59 -37 -96c32 30 59 60 79 97c9 15 6 30 -1 45c-6 12 -10 12 -17 2z" />
    <glyph glyph-name="eacute" unicode="&#xe9;" horiz-adv-x="295" 
d="M219 500c4 -2 4 -9 -4 -26c-9 -19 -14 -35 -35 -56l-4 -3c-4 -2 -9 -5 -14 -6c-2 0 -4 0 -7 -1c-15 0 -17 17 -7 37c1 2 1 5 2 7c7 14 17 37 31 45c17 9 29 10 38 3zM196 359c16 -9 30 -19 40 -36c12 -22 12 -44 1 -66c-18 -35 -45 -63 -71 -91c-8 -9 -18 -15 -27 -22
c-13 -10 -21 -23 -21 -42c0 -16 -2 -31 -3 -47c0 -13 0 -28 13 -35c12 -5 25 0 36 8c21 15 33 38 46 61c3 6 6 12 10 18c2 3 7 5 11 2c4 -2 4 -7 2 -11c-14 -31 -22 -67 -52 -90c-25 -20 -57 -23 -84 -4c-34 24 -44 43 -47 104c4 49 5 111 30 168c11 26 26 50 43 71
c20 25 45 27 73 12zM195 313c-10 -15 -15 -33 -24 -48c-17 -29 -30 -59 -37 -96c32 30 59 60 79 97c9 15 6 30 -1 45c-6 12 -10 12 -17 2z" />
    <glyph glyph-name="ecaron" unicode="&#x11b;" horiz-adv-x="295" 
d="M100 529c8 -6 14 -12 20 -19l1 -1c19 -24 41 -45 59 -69c5 -5 5 -5 9 0c8 9 13 19 19 29c8 10 27 36 35 46c5 3 6 5 9 8c3 4 6 6 10 5c4 0 8 -3 5 -7c-4 -7 -5 -15 -12 -19c-4 -4 -17 -23 -20 -26c-9 -11 -19 -22 -24 -34c-2 -5 -6 -10 -12 -14l-14 -14
c-6 -8 -16 -9 -24 -9c-6 0 -8 1 -10 4c-8 12 -17 22 -28 33c-9 10 -17 20 -25 30c-7 7 -14 15 -20 24c-2 4 -4 7 0 11c3 5 6 9 10 14l6 7c2 0 4 1 6 1zM196 359c16 -9 30 -19 40 -36c12 -22 12 -44 1 -66c-18 -35 -45 -63 -71 -91c-8 -9 -18 -15 -27 -22
c-13 -10 -21 -23 -21 -42c0 -16 -2 -31 -3 -47c0 -13 0 -28 13 -35c12 -5 25 0 36 8c21 15 33 38 46 61c3 6 6 12 10 18c2 3 7 5 11 2c4 -2 4 -7 2 -11c-14 -31 -22 -67 -52 -90c-25 -20 -57 -23 -84 -4c-34 24 -44 43 -47 104c4 49 5 111 30 168c11 26 26 50 43 71
c20 25 45 27 73 12zM195 313c-10 -15 -15 -33 -24 -48c-17 -29 -30 -59 -37 -96c32 30 59 60 79 97c9 15 6 30 -1 45c-6 12 -10 12 -17 2z" />
    <glyph glyph-name="ecircumflex" unicode="&#xea;" horiz-adv-x="295" 
d="M208 525c6 0 8 -2 10 -5c7 -12 16 -23 26 -34c8 -10 16 -21 24 -32c6 -7 13 -15 18 -24c2 -4 3 -7 0 -11c-3 -5 -7 -9 -11 -14c-2 -2 -4 -5 -7 -7h-6c-7 6 -13 13 -18 20l-1 1c-18 25 -39 47 -56 72c-4 5 -4 5 -9 0c-8 -8 -14 -18 -21 -27c-7 -11 -28 -35 -37 -44
c-4 -3 -6 -6 -9 -9s-6 -5 -10 -4c-4 0 -8 4 -5 8c4 6 6 14 13 18c4 3 19 22 22 25c9 10 19 20 25 33c3 5 7 9 12 13s10 8 15 13c7 7 17 9 25 8zM196 359c16 -9 30 -19 40 -36c12 -22 12 -44 1 -66c-18 -35 -45 -63 -71 -91c-8 -9 -18 -15 -27 -22c-13 -10 -21 -23 -21 -42
c0 -16 -2 -31 -3 -47c0 -13 0 -28 13 -35c12 -5 25 0 36 8c21 15 33 38 46 61c3 6 6 12 10 18c2 3 7 5 11 2c4 -2 4 -7 2 -11c-14 -31 -22 -67 -52 -90c-25 -20 -57 -23 -84 -4c-34 24 -44 43 -47 104c4 49 5 111 30 168c11 26 26 50 43 71c20 25 45 27 73 12zM195 313
c-10 -15 -15 -33 -24 -48c-17 -29 -30 -59 -37 -96c32 30 59 60 79 97c9 15 6 30 -1 45c-6 12 -10 12 -17 2z" />
    <glyph glyph-name="ecircumflexacute" unicode="&#x1ebf;" horiz-adv-x="295" 
d="M255 632c4 -2 4 -9 -4 -26c-9 -19 -14 -35 -35 -56l-4 -3c-4 -2 -9 -5 -14 -6c-2 0 -4 0 -7 -1c-15 0 -17 17 -7 37c1 2 1 5 2 7c7 14 17 37 31 45c17 9 29 10 38 3zM206 517c6 0 8 -2 10 -5c7 -12 16 -23 26 -34c8 -10 16 -21 24 -32c6 -7 13 -15 18 -24
c2 -4 3 -7 0 -11c-3 -5 -7 -9 -11 -14c-2 -2 -4 -5 -7 -7h-6c-7 6 -13 13 -18 20l-1 1c-18 25 -39 47 -56 72c-4 5 -4 5 -9 0c-8 -8 -14 -18 -21 -27c-7 -11 -28 -35 -37 -44c-4 -3 -6 -6 -9 -9s-6 -5 -10 -4c-4 0 -8 4 -5 8c4 6 6 14 13 18c4 3 19 22 22 25
c9 10 19 20 25 33c3 5 7 9 12 13s10 8 15 13c7 7 17 9 25 8zM196 359c16 -9 30 -19 40 -36c12 -22 12 -44 1 -66c-18 -35 -45 -63 -71 -91c-8 -9 -18 -15 -27 -22c-13 -10 -21 -23 -21 -42c0 -16 -2 -31 -3 -47c0 -13 0 -28 13 -35c12 -5 25 0 36 8c21 15 33 38 46 61
c3 6 6 12 10 18c2 3 7 5 11 2c4 -2 4 -7 2 -11c-14 -31 -22 -67 -52 -90c-25 -20 -57 -23 -84 -4c-34 24 -44 43 -47 104c4 49 5 111 30 168c11 26 26 50 43 71c20 25 45 27 73 12zM195 313c-10 -15 -15 -33 -24 -48c-17 -29 -30 -59 -37 -96c32 30 59 60 79 97
c9 15 6 30 -1 45c-6 12 -10 12 -17 2z" />
    <glyph glyph-name="ecircumflexgrave" unicode="&#x1ec1;" horiz-adv-x="295" 
d="M151 651c3 -2 8 -2 10 -5c8 -11 20 -14 29 -22c7 -6 15 -11 21 -20c3 -5 8 -6 11 -9c5 -3 9 -8 15 -11c5 -2 6 -8 11 -11c2 -2 1 -5 -1 -6c-3 -2 -4 -5 -3 -9c1 -3 -2 -7 -3 -8c-4 -3 -4 -8 -5 -13c-1 -8 -12 -10 -18 -5l-27 27c-4 4 -9 8 -10 11c-2 5 -6 3 -8 6
c-2 4 -5 6 -8 10c-7 12 -18 22 -24 35c-4 7 -7 13 -5 20c1 5 2 11 7 10c3 0 5 -4 8 0zM200 505c6 0 8 -2 10 -5c7 -12 16 -23 26 -34c8 -10 16 -21 24 -32c6 -7 13 -15 18 -24c2 -4 3 -7 0 -11c-3 -5 -7 -9 -11 -14c-2 -2 -4 -5 -7 -7h-6c-7 6 -13 13 -18 20l-1 1
c-18 25 -39 47 -56 72c-4 5 -4 5 -9 0c-8 -8 -14 -18 -21 -27c-7 -11 -28 -35 -37 -44c-4 -3 -6 -6 -9 -9s-6 -5 -10 -4c-4 0 -8 4 -5 8c4 6 6 14 13 18c4 3 19 22 22 25c9 10 19 20 25 33c3 5 7 9 12 13s10 8 15 13c7 7 17 9 25 8zM196 359c16 -9 30 -19 40 -36
c12 -22 12 -44 1 -66c-18 -35 -45 -63 -71 -91c-8 -9 -18 -15 -27 -22c-13 -10 -21 -23 -21 -42c0 -16 -2 -31 -3 -47c0 -13 0 -28 13 -35c12 -5 25 0 36 8c21 15 33 38 46 61c3 6 6 12 10 18c2 3 7 5 11 2c4 -2 4 -7 2 -11c-14 -31 -22 -67 -52 -90c-25 -20 -57 -23 -84 -4
c-34 24 -44 43 -47 104c4 49 5 111 30 168c11 26 26 50 43 71c20 25 45 27 73 12zM195 313c-10 -15 -15 -33 -24 -48c-17 -29 -30 -59 -37 -96c32 30 59 60 79 97c9 15 6 30 -1 45c-6 12 -10 12 -17 2z" />
    <glyph glyph-name="ecircumflextilde" unicode="&#x1ec5;" horiz-adv-x="295" 
d="M155 598c14 1 28 -5 41 -11c11 -7 19 -16 27 -25c8 -8 23 -9 33 -3c5 3 9 8 10 13c2 5 2 13 5 17c9 8 11 -9 11 -14c-1 -24 -20 -42 -42 -42c-4 1 -7 1 -10 2c-10 3 -17 10 -25 16c-5 3 -9 4 -13 6c-9 5 -18 7 -27 7c-16 1 -22 -9 -29 -23c-4 -8 -15 -18 -23 -12
c-8 5 -8 16 -6 25c4 13 10 21 17 31c9 8 20 12 31 13zM202 513c6 0 8 -2 10 -5c7 -12 16 -23 26 -34c8 -10 16 -21 24 -32c6 -7 13 -15 18 -24c2 -4 3 -7 0 -11c-3 -5 -7 -9 -11 -14c-2 -2 -4 -5 -7 -7h-6c-7 6 -13 13 -18 20l-1 1c-18 25 -39 47 -56 72c-4 5 -4 5 -9 0
c-8 -8 -14 -18 -21 -27c-7 -11 -28 -35 -37 -44c-4 -3 -6 -6 -9 -9s-6 -5 -10 -4c-4 0 -8 4 -5 8c4 6 6 14 13 18c4 3 19 22 22 25c9 10 19 20 25 33c3 5 7 9 12 13s10 8 15 13c7 7 17 9 25 8zM196 359c16 -9 30 -19 40 -36c12 -22 12 -44 1 -66c-18 -35 -45 -63 -71 -91
c-8 -9 -18 -15 -27 -22c-13 -10 -21 -23 -21 -42c0 -16 -2 -31 -3 -47c0 -13 0 -28 13 -35c12 -5 25 0 36 8c21 15 33 38 46 61c3 6 6 12 10 18c2 3 7 5 11 2c4 -2 4 -7 2 -11c-14 -31 -22 -67 -52 -90c-25 -20 -57 -23 -84 -4c-34 24 -44 43 -47 104c4 49 5 111 30 168
c11 26 26 50 43 71c20 25 45 27 73 12zM195 313c-10 -15 -15 -33 -24 -48c-17 -29 -30 -59 -37 -96c32 30 59 60 79 97c9 15 6 30 -1 45c-6 12 -10 12 -17 2z" />
    <glyph glyph-name="edieresis" unicode="&#xeb;" horiz-adv-x="295" 
d="M129 476c10 10 25 6 26 -7c2 -9 8 -18 9 -28c0 -7 -4 -13 -4 -19c0 -2 0 -3 -2 -3c-5 2 -10 -6 -15 -2c-8 -1 -11 2 -15 7c-8 9 -13 17 -12 29c2 10 6 17 13 23zM219 476c9 10 24 6 26 -7c2 -9 8 -18 9 -28c1 -7 -4 -13 -3 -19c0 -2 -1 -3 -3 -3c-6 2 -10 -6 -15 -2
c-8 -1 -11 2 -15 7c-8 9 -12 17 -11 29c1 10 5 17 12 23zM196 359c16 -9 30 -19 40 -36c12 -22 12 -44 1 -66c-18 -35 -45 -63 -71 -91c-8 -9 -18 -15 -27 -22c-13 -10 -21 -23 -21 -42c0 -16 -2 -31 -3 -47c0 -13 0 -28 13 -35c12 -5 25 0 36 8c21 15 33 38 46 61
c3 6 6 12 10 18c2 3 7 5 11 2c4 -2 4 -7 2 -11c-14 -31 -22 -67 -52 -90c-25 -20 -57 -23 -84 -4c-34 24 -44 43 -47 104c4 49 5 111 30 168c11 26 26 50 43 71c20 25 45 27 73 12zM195 313c-10 -15 -15 -33 -24 -48c-17 -29 -30 -59 -37 -96c32 30 59 60 79 97
c9 15 6 30 -1 45c-6 12 -10 12 -17 2z" />
    <glyph glyph-name="edotaccent" unicode="&#x117;" horiz-adv-x="295" 
d="M162 481c9 9 23 5 25 -8c1 -9 8 -17 9 -27c0 -7 -3 -13 -3 -20c0 -1 -2 -2 -3 -1c-5 1 -10 -6 -14 -2c-8 -2 -11 2 -15 7c-8 8 -13 17 -11 28c1 9 5 17 12 23zM196 359c16 -9 30 -19 40 -36c12 -22 12 -44 1 -66c-18 -35 -45 -63 -71 -91c-8 -9 -18 -15 -27 -22
c-13 -10 -21 -23 -21 -42c0 -16 -2 -31 -3 -47c0 -13 0 -28 13 -35c12 -5 25 0 36 8c21 15 33 38 46 61c3 6 6 12 10 18c2 3 7 5 11 2c4 -2 4 -7 2 -11c-14 -31 -22 -67 -52 -90c-25 -20 -57 -23 -84 -4c-34 24 -44 43 -47 104c4 49 5 111 30 168c11 26 26 50 43 71
c20 25 45 27 73 12zM195 313c-10 -15 -15 -33 -24 -48c-17 -29 -30 -59 -37 -96c32 30 59 60 79 97c9 15 6 30 -1 45c-6 12 -10 12 -17 2z" />
    <glyph glyph-name="egrave" unicode="&#xe8;" horiz-adv-x="295" 
d="M138 519c3 -2 8 -2 10 -5c8 -11 20 -14 29 -22c7 -6 15 -11 21 -20c3 -5 8 -6 11 -9c5 -3 9 -8 15 -11c5 -2 6 -8 11 -11c2 -2 1 -5 -1 -6c-3 -2 -4 -5 -3 -9c1 -3 -2 -7 -3 -8c-4 -3 -4 -8 -5 -13c-1 -8 -12 -10 -18 -5l-27 27c-4 4 -9 8 -10 11c-2 5 -6 3 -8 6
c-2 4 -5 6 -8 10c-7 12 -18 22 -24 35c-4 7 -7 13 -5 20c1 5 2 11 7 10c3 0 5 -4 8 0zM196 359c16 -9 30 -19 40 -36c12 -22 12 -44 1 -66c-18 -35 -45 -63 -71 -91c-8 -9 -18 -15 -27 -22c-13 -10 -21 -23 -21 -42c0 -16 -2 -31 -3 -47c0 -13 0 -28 13 -35c12 -5 25 0 36 8
c21 15 33 38 46 61c3 6 6 12 10 18c2 3 7 5 11 2c4 -2 4 -7 2 -11c-14 -31 -22 -67 -52 -90c-25 -20 -57 -23 -84 -4c-34 24 -44 43 -47 104c4 49 5 111 30 168c11 26 26 50 43 71c20 25 45 27 73 12zM195 313c-10 -15 -15 -33 -24 -48c-17 -29 -30 -59 -37 -96
c32 30 59 60 79 97c9 15 6 30 -1 45c-6 12 -10 12 -17 2z" />
    <glyph glyph-name="emacron" unicode="&#x113;" horiz-adv-x="295" 
d="M250 461c8 -3 9 -13 18 -16c7 -14 -1 -15 -11 -21c-10 -1 -17 3 -26 3c-15 1 -30 -3 -45 -4c-87 -3 -121 -16 -116 16c2 13 89 -2 106 7c13 5 33 7 48 12c9 2 17 7 26 3zM196 359c16 -9 30 -19 40 -36c12 -22 12 -44 1 -66c-18 -35 -45 -63 -71 -91
c-8 -9 -18 -15 -27 -22c-13 -10 -21 -23 -21 -42c0 -16 -2 -31 -3 -47c0 -13 0 -28 13 -35c12 -5 25 0 36 8c21 15 33 38 46 61c3 6 6 12 10 18c2 3 7 5 11 2c4 -2 4 -7 2 -11c-14 -31 -22 -67 -52 -90c-25 -20 -57 -23 -84 -4c-34 24 -44 43 -47 104c4 49 5 111 30 168
c11 26 26 50 43 71c20 25 45 27 73 12zM195 313c-10 -15 -15 -33 -24 -48c-17 -29 -30 -59 -37 -96c32 30 59 60 79 97c9 15 6 30 -1 45c-6 12 -10 12 -17 2z" />
    <glyph glyph-name="eogonek" unicode="&#x119;" horiz-adv-x="295" 
d="M237 -35c1 -3 3 -6 4 -9c5 -8 3 -14 -6 -21c-22 -12 -44 -18 -66 -10c-8 3 -12 10 -17 17c-1 1 -2 2 -3 5c-7 6 -9 16 -9 24c1 8 1 14 3 21c-16 -2 -32 2 -46 12c-34 24 -44 43 -47 104c4 49 5 111 30 168c11 26 26 50 43 71c20 25 45 27 73 12c16 -9 30 -19 40 -36
c12 -22 12 -44 1 -66c-18 -35 -45 -63 -71 -91c-8 -9 -18 -15 -27 -22c-13 -10 -21 -23 -21 -42c0 -16 -2 -31 -3 -47c0 -13 0 -28 13 -35c12 -5 25 0 36 8c21 15 33 38 46 61c3 6 6 12 10 18c2 3 7 5 11 2c4 -2 4 -7 2 -11c-14 -31 -22 -67 -52 -90l-7 -5
c-3 -8 -4 -17 -2 -24c1 -8 3 -14 12 -14c8 -1 15 -6 22 0c6 4 8 9 16 9c6 1 13 -3 15 -9zM171 265c-17 -29 -30 -59 -37 -96c32 30 59 60 79 97c9 15 6 30 -1 45c-6 12 -10 12 -17 2c-10 -15 -15 -33 -24 -48z" />
    <glyph glyph-name="etilde" unicode="&#x1ebd;" horiz-adv-x="295" 
d="M131 486c14 1 28 -5 41 -11c11 -7 19 -16 27 -25c8 -8 23 -9 33 -3c5 3 9 8 10 13c2 5 2 13 5 17c9 8 11 -9 11 -14c-1 -24 -20 -42 -42 -42c-4 1 -7 1 -10 2c-10 3 -17 10 -25 16c-5 3 -9 4 -13 6c-9 5 -18 7 -27 7c-16 1 -22 -9 -29 -23c-4 -8 -15 -18 -23 -12
c-8 5 -8 16 -6 25c4 13 10 21 17 31c9 8 20 12 31 13zM196 359c16 -9 30 -19 40 -36c12 -22 12 -44 1 -66c-18 -35 -45 -63 -71 -91c-8 -9 -18 -15 -27 -22c-13 -10 -21 -23 -21 -42c0 -16 -2 -31 -3 -47c0 -13 0 -28 13 -35c12 -5 25 0 36 8c21 15 33 38 46 61
c3 6 6 12 10 18c2 3 7 5 11 2c4 -2 4 -7 2 -11c-14 -31 -22 -67 -52 -90c-25 -20 -57 -23 -84 -4c-34 24 -44 43 -47 104c4 49 5 111 30 168c11 26 26 50 43 71c20 25 45 27 73 12zM195 313c-10 -15 -15 -33 -24 -48c-17 -29 -30 -59 -37 -96c32 30 59 60 79 97
c9 15 6 30 -1 45c-6 12 -10 12 -17 2z" />
    <glyph glyph-name="f" unicode="f" horiz-adv-x="348" 
d="M261 625c20 4 32 -4 35 -24c4 -19 3 -37 0 -56c-4 -28 -8 -56 -20 -81c-10 -21 -21 -40 -30 -61c-9 -17 -10 -36 -17 -54l-6 -45c0 -28 -3 -56 -5 -84c-1 -5 -2 -11 2 -18c21 9 53 19 58 5c2 -7 1 -12 -4 -16l-30 -13c-27 -3 -34 -14 -35 -42c-2 -32 -5 -63 -8 -95
c-2 -13 -14 -135 -14 -148c1 -13 -5 -24 -13 -32c-11 -12 -25 -12 -36 2c-5 8 -8 16 -9 25c-6 33 7 173 8 205c0 22 -1 45 -1 68c-6 -3 -9 -10 -13 -16c-13 -25 -29 -47 -47 -69l-5 -6c-5 -5 -12 -13 -18 -8c-7 6 1 12 4 17c26 40 52 79 77 119c6 9 8 18 9 29
c0 50 0 101 4 152c3 30 7 59 14 89c8 44 26 84 51 121c7 11 18 20 28 29c7 4 14 6 21 7zM271 548c-17 -23 -22 -50 -26 -78c15 23 18 51 26 78z" />
    <glyph glyph-name="g" unicode="g" horiz-adv-x="358" 
d="M210 390c19 -4 27 -9 29 -29c3 -15 10 -28 11 -42c7 -42 4 -84 3 -109c-1 -28 -3 -56 -5 -85c-12 -82 -12 -60 -12 -107c14 11 26 19 37 27c6 5 11 9 18 11c6 1 12 0 15 -6c4 -7 0 -12 -6 -15c-17 -11 -32 -26 -48 -39c-12 -12 -22 -25 -24 -43c-4 -33 -9 -66 -12 -99
c-4 -37 -14 -73 -30 -105c-10 -19 -23 -36 -41 -46c-15 -10 -29 -7 -41 7c-10 13 -15 25 -15 41c-3 48 19 90 37 132c9 21 20 37 29 55c11 25 10 54 17 80c1 3 0 7 -3 9c-3 3 -6 0 -9 -2c-20 -16 -39 -10 -60 4c-42 29 -54 71 -49 120c8 85 39 142 93 207l21 20
c12 13 27 17 45 14zM204 312c-4 -7 -9 -15 -14 -22c-32 -49 -49 -85 -63 -141c-5 -24 -4 -47 -1 -69l7 -21c4 -9 8 -10 15 -4l5 8c17 22 21 47 30 71c18 64 18 111 26 176c-2 0 -3 1 -5 2zM146 -149c-11 -19 -17 -40 -22 -63c-3 -13 -4 -26 -2 -40c1 -3 1 -7 5 -8
c6 0 6 5 7 9c7 33 11 67 12 102z" />
    <glyph glyph-name="gbreve" unicode="&#x11f;" horiz-adv-x="358" 
d="M245 512c10 2 19 -2 23 -10c6 -11 2 -18 -5 -27c-14 -13 -41 -20 -60 -21c-14 2 -29 1 -42 10c-9 6 -18 11 -25 18c-5 6 -14 16 -12 25c0 5 2 5 6 5c7 -2 14 -5 18 -10c13 -15 30 -16 49 -14c10 1 20 3 28 9c6 5 12 12 20 15zM210 390c19 -4 27 -9 29 -29
c3 -15 10 -28 11 -42c7 -42 4 -84 3 -109c-1 -28 -3 -56 -5 -85c-12 -82 -12 -60 -12 -107c14 11 26 19 37 27c6 5 11 9 18 11c6 1 12 0 15 -6c4 -7 0 -12 -6 -15c-17 -11 -32 -26 -48 -39c-12 -12 -22 -25 -24 -43c-4 -33 -9 -66 -12 -99c-4 -37 -14 -73 -30 -105
c-10 -19 -23 -36 -41 -46c-15 -10 -29 -7 -41 7c-10 13 -15 25 -15 41c-3 48 19 90 37 132c9 21 20 37 29 55c11 25 10 54 17 80c1 3 0 7 -3 9c-3 3 -6 0 -9 -2c-20 -16 -39 -10 -60 4c-42 29 -54 71 -49 120c8 85 39 142 93 207l21 20c12 13 27 17 45 14zM204 312
c-4 -7 -9 -15 -14 -22c-32 -49 -49 -85 -63 -141c-5 -24 -4 -47 -1 -69l7 -21c4 -9 8 -10 15 -4l5 8c17 22 21 47 30 71c18 64 18 111 26 176c-2 0 -3 1 -5 2zM146 -149c-11 -19 -17 -40 -22 -63c-3 -13 -4 -26 -2 -40c1 -3 1 -7 5 -8c6 0 6 5 7 9c7 33 11 67 12 102z" />
    <glyph glyph-name="gdotaccent" unicode="&#x121;" horiz-adv-x="358" 
d="M188 526c9 9 23 5 25 -8c1 -9 8 -17 9 -27c0 -7 -3 -13 -3 -20c0 -1 -2 -2 -3 -1c-5 1 -10 -6 -14 -2c-8 -2 -11 2 -15 7c-8 8 -13 17 -11 28c1 9 5 17 12 23zM210 390c19 -4 27 -9 29 -29c3 -15 10 -28 11 -42c7 -42 4 -84 3 -109c-1 -28 -3 -56 -5 -85
c-12 -82 -12 -60 -12 -107c14 11 26 19 37 27c6 5 11 9 18 11c6 1 12 0 15 -6c4 -7 0 -12 -6 -15c-17 -11 -32 -26 -48 -39c-12 -12 -22 -25 -24 -43c-4 -33 -9 -66 -12 -99c-4 -37 -14 -73 -30 -105c-10 -19 -23 -36 -41 -46c-15 -10 -29 -7 -41 7c-10 13 -15 25 -15 41
c-3 48 19 90 37 132c9 21 20 37 29 55c11 25 10 54 17 80c1 3 0 7 -3 9c-3 3 -6 0 -9 -2c-20 -16 -39 -10 -60 4c-42 29 -54 71 -49 120c8 85 39 142 93 207l21 20c12 13 27 17 45 14zM204 312c-4 -7 -9 -15 -14 -22c-32 -49 -49 -85 -63 -141c-5 -24 -4 -47 -1 -69l7 -21
c4 -9 8 -10 15 -4l5 8c17 22 21 47 30 71c18 64 18 111 26 176c-2 0 -3 1 -5 2zM146 -149c-11 -19 -17 -40 -22 -63c-3 -13 -4 -26 -2 -40c1 -3 1 -7 5 -8c6 0 6 5 7 9c7 33 11 67 12 102z" />
    <glyph glyph-name="h" unicode="h" horiz-adv-x="344" 
d="M120 564c17 -10 24 -25 23 -45c-5 -98 -37 -238 -29 -336c23 51 67 161 140 134l12 -7c23 -22 32 -50 27 -82c-4 -29 -10 -57 -10 -86l-3 -16c-8 -21 -13 -43 -16 -65c-2 -16 -2 -32 -1 -48c1 -15 -8 -34 -18 -29c-32 16 -54 26 -50 67c5 39 14 77 22 116
c7 34 13 69 19 103c2 10 0 25 -13 25c-33 -10 -66 -66 -81 -139c-5 -27 -20 -94 -29 -122l-2 -27c1 -16 -5 -32 -10 -47l-15 -7c4 3 -3 7 -11 8c-10 2 -12 12 -14 20c-10 47 -13 134 -9 181c4 52 2 105 9 157c6 49 7 141 18 189l10 40c8 22 12 28 31 16z" />
    <glyph glyph-name="i" unicode="i" horiz-adv-x="232" 
d="M114 499c8 0 15 -1 21 -4c22 -13 26 -26 14 -44c-7 -11 -14 -21 -29 -23c-17 -1 -33 12 -34 30c1 7 2 15 5 22c3 16 8 19 23 19zM105 373l15 -10c8 -11 11 -21 9 -36c-6 -29 -7 -58 -7 -88c-2 -30 -5 -59 -7 -89c-2 -29 -5 -58 -6 -88c-1 -8 1 -17 1 -27
c1 -6 0 -14 6 -17c8 -2 13 5 16 10c12 15 23 28 31 46c3 4 4 9 7 12s7 7 12 5s3 -7 4 -11c0 -31 -16 -56 -33 -78c-22 -28 -70 -17 -89 16c-7 13 -12 26 -14 40v24c0 40 1 79 6 118c4 37 9 74 18 111c3 11 5 22 10 33c1 3 4 6 3 9c-2 15 9 19 18 20z" />
    <glyph glyph-name="dotlessi" unicode="&#x131;" horiz-adv-x="253" 
d="M81 386c11 3 33 2 42 -9s12 -21 11 -36c-4 -29 -4 -58 -3 -88c0 -30 -2 -59 -2 -89c-1 -29 -2 -59 -2 -89c0 -8 2 -17 3 -26c1 -6 0 -14 7 -17c8 -2 12 5 15 11c11 15 22 29 29 47c2 4 3 9 6 12c3 4 7 8 12 6s3 -7 4 -11c2 -31 -13 -56 -29 -79c-20 -29 -84 -21 -104 11
c-8 13 -14 26 -16 40c-1 8 -1 15 -2 23c-2 40 -3 79 0 119c5 66 9 89 9 145c0 3 4 6 3 9c-3 15 8 19 17 21z" />
    <glyph glyph-name="iacute" unicode="&#xed;" horiz-adv-x="253" 
d="M143 499c4 -2 4 -9 -4 -26c-9 -19 -14 -35 -35 -56l-4 -3c-4 -2 -9 -5 -14 -6c-2 0 -4 0 -7 -1c-15 0 -17 17 -7 37c1 2 1 5 2 7c7 14 17 37 31 45c17 9 29 10 38 3zM81 386c11 3 33 2 42 -9s12 -21 11 -36c-4 -29 -4 -58 -3 -88c0 -30 -2 -59 -2 -89
c-1 -29 -2 -59 -2 -89c0 -8 2 -17 3 -26c1 -6 0 -14 7 -17c8 -2 12 5 15 11c11 15 22 29 29 47c2 4 3 9 6 12c3 4 7 8 12 6s3 -7 4 -11c2 -31 -13 -56 -29 -79c-20 -29 -84 -21 -104 11c-8 13 -14 26 -16 40c-1 8 -1 15 -2 23c-2 40 -3 79 0 119c5 66 9 89 9 145
c0 3 4 6 3 9c-3 15 8 19 17 21z" />
    <glyph glyph-name="icaron" unicode="&#x1d0;" horiz-adv-x="253" 
d="M26 562c8 -6 14 -12 20 -19l1 -1c19 -24 41 -45 59 -69c5 -5 5 -5 9 0c8 9 13 19 19 29c8 10 27 36 35 46c5 3 6 5 9 8c3 4 6 6 10 5c4 0 8 -3 5 -7c-4 -7 -5 -15 -12 -19c-4 -4 -17 -23 -20 -26c-9 -11 -19 -22 -24 -34c-2 -5 -6 -10 -12 -14l-14 -14
c-6 -8 -16 -9 -24 -9c-6 0 -8 1 -10 4c-8 12 -17 22 -28 33c-9 10 -17 20 -25 30c-7 7 -14 15 -20 24c-2 4 -4 7 0 11c3 5 6 9 10 14l6 7c2 0 4 1 6 1zM81 386c11 3 33 2 42 -9s12 -21 11 -36c-4 -29 -4 -58 -3 -88c0 -30 -2 -59 -2 -89c-1 -29 -2 -59 -2 -89
c0 -8 2 -17 3 -26c1 -6 0 -14 7 -17c8 -2 12 5 15 11c11 15 22 29 29 47c2 4 3 9 6 12c3 4 7 8 12 6s3 -7 4 -11c2 -31 -13 -56 -29 -79c-20 -29 -84 -21 -104 11c-8 13 -14 26 -16 40c-1 8 -1 15 -2 23c-2 40 -3 79 0 119c5 66 9 89 9 145c0 3 4 6 3 9c-3 15 8 19 17 21z
" />
    <glyph glyph-name="icircumflex" unicode="&#xee;" horiz-adv-x="253" 
d="M119 548c6 0 8 -2 10 -5c7 -12 16 -23 26 -34c8 -10 16 -21 24 -32c6 -7 13 -15 18 -24c2 -4 3 -7 0 -11c-3 -5 -7 -9 -11 -14c-2 -2 -4 -5 -7 -7h-6c-7 6 -13 13 -18 20l-1 1c-18 25 -39 47 -56 72c-4 5 -4 5 -9 0c-8 -8 -14 -18 -21 -27c-7 -11 -28 -35 -37 -44
c-4 -3 -6 -6 -9 -9s-6 -5 -10 -4c-4 0 -8 4 -5 8c4 6 6 14 13 18c4 3 19 22 22 25c9 10 19 20 25 33c3 5 7 9 12 13s10 8 15 13c7 7 17 9 25 8zM81 386c11 3 33 2 42 -9s12 -21 11 -36c-4 -29 -4 -58 -3 -88c0 -30 -2 -59 -2 -89c-1 -29 -2 -59 -2 -89c0 -8 2 -17 3 -26
c1 -6 0 -14 7 -17c8 -2 12 5 15 11c11 15 22 29 29 47c2 4 3 9 6 12c3 4 7 8 12 6s3 -7 4 -11c2 -31 -13 -56 -29 -79c-20 -29 -84 -21 -104 11c-8 13 -14 26 -16 40c-1 8 -1 15 -2 23c-2 40 -3 79 0 119c5 66 9 89 9 145c0 3 4 6 3 9c-3 15 8 19 17 21z" />
    <glyph glyph-name="idieresis" unicode="&#xef;" horiz-adv-x="253" 
d="M32 471c10 10 25 6 26 -7c2 -9 8 -18 9 -28c0 -7 -4 -13 -4 -19c0 -2 0 -3 -2 -3c-5 2 -10 -6 -15 -2c-8 -1 -11 2 -15 7c-8 9 -13 17 -12 29c2 10 6 17 13 23zM122 471c9 10 24 6 26 -7c2 -9 8 -18 9 -28c1 -7 -4 -13 -3 -19c0 -2 -1 -3 -3 -3c-6 2 -10 -6 -15 -2
c-8 -1 -11 2 -15 7c-8 9 -12 17 -11 29c1 10 5 17 12 23zM81 386c11 3 33 2 42 -9s12 -21 11 -36c-4 -29 -4 -58 -3 -88c0 -30 -2 -59 -2 -89c-1 -29 -2 -59 -2 -89c0 -8 2 -17 3 -26c1 -6 0 -14 7 -17c8 -2 12 5 15 11c11 15 22 29 29 47c2 4 3 9 6 12c3 4 7 8 12 6
s3 -7 4 -11c2 -31 -13 -56 -29 -79c-20 -29 -84 -21 -104 11c-8 13 -14 26 -16 40c-1 8 -1 15 -2 23c-2 40 -3 79 0 119c5 66 9 89 9 145c0 3 4 6 3 9c-3 15 8 19 17 21z" />
    <glyph glyph-name="i.loclTRK" horiz-adv-x="253" 
d="M94 516c9 9 23 5 25 -8c1 -9 8 -17 9 -27c0 -7 -3 -13 -3 -20c0 -1 -2 -2 -3 -1c-5 1 -10 -6 -14 -2c-8 -2 -11 2 -15 7c-8 8 -13 17 -11 28c1 9 5 17 12 23zM81 386c11 3 33 2 42 -9s12 -21 11 -36c-4 -29 -4 -58 -3 -88c0 -30 -2 -59 -2 -89c-1 -29 -2 -59 -2 -89
c0 -8 2 -17 3 -26c1 -6 0 -14 7 -17c8 -2 12 5 15 11c11 15 22 29 29 47c2 4 3 9 6 12c3 4 7 8 12 6s3 -7 4 -11c2 -31 -13 -56 -29 -79c-20 -29 -84 -21 -104 11c-8 13 -14 26 -16 40c-1 8 -1 15 -2 23c-2 40 -3 79 0 119c5 66 9 89 9 145c0 3 4 6 3 9c-3 15 8 19 17 21z
" />
    <glyph glyph-name="igrave" unicode="&#xec;" horiz-adv-x="253" 
d="M23 540c3 -2 8 -2 10 -5c8 -11 20 -14 29 -22c7 -6 15 -11 21 -20c3 -5 8 -6 11 -9c5 -3 9 -8 15 -11c5 -2 6 -8 11 -11c2 -2 1 -5 -1 -6c-3 -2 -4 -5 -3 -9c1 -3 -2 -7 -3 -8c-4 -3 -4 -8 -5 -13c-1 -8 -12 -10 -18 -5l-27 27c-4 4 -9 8 -10 11c-2 5 -6 3 -8 6
c-2 4 -5 6 -8 10c-7 12 -18 22 -24 35c-4 7 -7 13 -5 20c1 5 2 11 7 10c3 0 5 -4 8 0zM81 386c11 3 33 2 42 -9s12 -21 11 -36c-4 -29 -4 -58 -3 -88c0 -30 -2 -59 -2 -89c-1 -29 -2 -59 -2 -89c0 -8 2 -17 3 -26c1 -6 0 -14 7 -17c8 -2 12 5 15 11c11 15 22 29 29 47
c2 4 3 9 6 12c3 4 7 8 12 6s3 -7 4 -11c2 -31 -13 -56 -29 -79c-20 -29 -84 -21 -104 11c-8 13 -14 26 -16 40c-1 8 -1 15 -2 23c-2 40 -3 79 0 119c5 66 9 89 9 145c0 3 4 6 3 9c-3 15 8 19 17 21z" />
    <glyph glyph-name="ij" unicode="&#x133;" horiz-adv-x="443" 
d="M325 508c22 6 42 -9 42 -32c1 -6 -3 -11 -6 -14c-9 -8 -12 -19 -15 -30c-1 -7 -4 -11 -11 -10c-16 -2 -22 3 -28 17c-9 21 -4 40 1 60c3 9 11 8 17 9zM114 499c8 0 15 -1 21 -4c22 -13 26 -26 14 -44c-7 -11 -14 -21 -29 -23c-17 -1 -33 12 -34 30c1 7 2 15 5 22
c3 16 8 19 23 19zM105 373l15 -10c8 -11 11 -21 9 -36c-6 -29 -7 -58 -7 -88c-2 -30 -5 -59 -7 -89c-2 -29 -5 -58 -6 -88c-1 -8 1 -17 1 -27c1 -6 0 -14 6 -17c8 -2 13 5 16 10c12 15 23 28 31 46c3 4 4 9 7 12s7 7 12 5s3 -7 4 -11c0 -31 -16 -56 -33 -78
c-22 -28 -70 -17 -89 16c-7 13 -12 26 -14 40v24c0 40 1 79 6 118c4 37 9 74 18 111c3 11 5 22 10 33c1 3 4 6 3 9c-2 15 9 19 18 20zM340 368c11 -6 17 -14 16 -26c-2 -23 1 -46 1 -70c1 -29 2 -59 1 -89c0 -32 -2 -64 -3 -96c0 -7 -3 -14 -3 -21c-1 -7 1 -11 9 -7
c6 3 12 7 19 11c3 1 8 1 11 -2c3 -4 1 -8 -1 -11c-8 -10 -17 -19 -27 -25c-10 -7 -12 -16 -13 -27c-4 -50 -5 -99 -14 -148c-5 -30 -19 -55 -41 -76c-9 -8 -20 -10 -32 -9c-8 -2 -17 -2 -25 -1c-25 0 -37 14 -36 39c3 62 39 122 74 171c5 7 8 13 8 21c-3 48 5 95 7 142
c2 35 2 70 3 105c0 36 1 71 2 106c0 8 3 12 12 13c10 1 20 7 32 0zM280 -68c0 -13 -17 -29 -23 -40c-4 -9 -26 -96 -1 -77c10 8 18 18 21 33c6 27 4 54 3 84z" />
    <glyph glyph-name="imacron" unicode="&#x12b;" horiz-adv-x="253" 
d="M188 486c8 -3 9 -13 18 -16c7 -14 -1 -15 -11 -21c-10 -1 -17 3 -26 3c-15 1 -30 -3 -45 -4c-87 -3 -121 -16 -116 16c2 13 89 -2 106 7c13 5 33 7 48 12c9 2 17 7 26 3zM81 386c11 3 33 2 42 -9s12 -21 11 -36c-4 -29 -4 -58 -3 -88c0 -30 -2 -59 -2 -89
c-1 -29 -2 -59 -2 -89c0 -8 2 -17 3 -26c1 -6 0 -14 7 -17c8 -2 12 5 15 11c11 15 22 29 29 47c2 4 3 9 6 12c3 4 7 8 12 6s3 -7 4 -11c2 -31 -13 -56 -29 -79c-20 -29 -84 -21 -104 11c-8 13 -14 26 -16 40c-1 8 -1 15 -2 23c-2 40 -3 79 0 119c5 66 9 89 9 145
c0 3 4 6 3 9c-3 15 8 19 17 21z" />
    <glyph glyph-name="iogonek" unicode="&#x12f;" horiz-adv-x="253" 
d="M100 452c-8 -2 -11 2 -15 7c-8 8 -13 17 -11 28c1 9 5 17 12 23c9 9 23 5 25 -8c1 -9 8 -17 9 -27c0 -7 -3 -13 -3 -20c0 -1 -2 -2 -3 -1c-5 1 -10 -6 -14 -2zM192 -36c1 -3 3 -6 4 -9c5 -8 3 -14 -6 -21c-22 -12 -44 -18 -66 -10c-8 3 -12 10 -17 17c-1 1 -2 2 -3 5
c-7 6 -9 16 -9 24c1 13 2 23 9 35c-14 4 -27 13 -34 24c-8 13 -14 26 -16 40c-1 8 -1 15 -2 23c-2 40 -3 79 0 119c5 66 9 89 9 145c0 3 4 6 3 9c-3 15 8 19 17 21c11 3 33 2 42 -9s12 -21 11 -36c-4 -29 -4 -58 -3 -88c0 -30 -2 -59 -2 -89c-1 -29 -2 -59 -2 -89
c0 -8 2 -17 3 -26c1 -6 0 -14 7 -17c8 -2 12 5 15 11c11 15 22 29 29 47c2 4 3 9 6 12c3 4 7 8 12 6s3 -7 4 -11c2 -31 -13 -56 -29 -79c-9 -13 -27 -19 -46 -18c-2 -7 -3 -15 -1 -22c1 -8 3 -14 12 -14c8 -1 15 -6 22 0c6 4 8 9 16 9c6 1 13 -3 15 -9z" />
    <glyph glyph-name="itilde" unicode="&#x129;" horiz-adv-x="253" 
d="M46 493c14 1 28 -5 41 -11c11 -7 19 -16 27 -25c8 -8 23 -9 33 -3c5 3 9 8 10 13c2 5 2 13 5 17c9 8 11 -9 11 -14c-1 -24 -20 -42 -42 -42c-4 1 -7 1 -10 2c-10 3 -17 10 -25 16c-5 3 -9 4 -13 6c-9 5 -18 7 -27 7c-16 1 -22 -9 -29 -23c-4 -8 -15 -18 -23 -12
c-8 5 -8 16 -6 25c4 13 10 21 17 31c9 8 20 12 31 13zM81 386c11 3 33 2 42 -9s12 -21 11 -36c-4 -29 -4 -58 -3 -88c0 -30 -2 -59 -2 -89c-1 -29 -2 -59 -2 -89c0 -8 2 -17 3 -26c1 -6 0 -14 7 -17c8 -2 12 5 15 11c11 15 22 29 29 47c2 4 3 9 6 12c3 4 7 8 12 6
s3 -7 4 -11c2 -31 -13 -56 -29 -79c-20 -29 -84 -21 -104 11c-8 13 -14 26 -16 40c-1 8 -1 15 -2 23c-2 40 -3 79 0 119c5 66 9 89 9 145c0 3 4 6 3 9c-3 15 8 19 17 21z" />
    <glyph glyph-name="j" unicode="j" horiz-adv-x="241" 
d="M123 508c22 6 42 -9 42 -32c1 -6 -3 -11 -6 -14c-9 -8 -12 -19 -15 -30c-1 -7 -4 -11 -11 -10c-16 -2 -22 3 -28 17c-9 21 -4 40 1 60c3 9 11 8 17 9zM138 368c11 -6 17 -14 16 -26c-2 -23 1 -46 1 -70c1 -29 2 -59 1 -89c0 -32 -2 -64 -3 -96c0 -7 -3 -14 -3 -21
c-1 -7 1 -11 9 -7c6 3 12 7 19 11c3 1 8 1 11 -2c3 -4 1 -8 -1 -11c-8 -10 -17 -19 -27 -25c-10 -7 -12 -16 -13 -27c-4 -50 -5 -99 -14 -148c-5 -30 -19 -55 -41 -76c-9 -8 -20 -10 -32 -9c-8 -2 -17 -2 -25 -1c-25 0 -37 14 -36 39c3 62 39 122 74 171c5 7 8 13 8 21
c-3 48 5 95 7 142c2 35 2 70 3 105c0 36 1 71 2 106c0 8 3 12 12 13c10 1 20 7 32 0zM78 -68c0 -13 -17 -29 -23 -40c-4 -9 -26 -96 -1 -77c10 8 18 18 21 33c6 27 4 54 3 84z" />
    <glyph glyph-name="k" unicode="k" horiz-adv-x="410" 
d="M130 578c12 -8 22 -19 22 -35c0 -33 -1 -65 -3 -97c-4 -58 -16 -116 -19 -174c0 -6 -1 -12 3 -19c11 19 21 38 32 56c11 19 23 36 39 51c17 17 37 17 58 8c17 -8 26 -26 20 -44c-7 -22 -10 -46 -21 -67c-10 -20 -23 -38 -37 -56c-9 -12 -18 -26 -9 -42
c22 -37 49 -85 83 -111c17 -13 23 -13 40 1c6 4 12 12 19 3c6 -7 3 -15 -2 -22c-1 -2 -3 -4 -4 -5c-25 -15 -50 -27 -79 -14c-30 14 -57 48 -80 73c-27 30 -47 64 -55 104c0 3 -1 6 -4 8c-10 -12 -9 -27 -10 -40c-4 -34 -4 -68 -4 -101c1 -7 0 -15 3 -21
c8 -18 -3 -31 -10 -46c-3 -5 -8 -6 -14 -6c-18 0 -33 13 -38 33c-6 28 -7 56 -8 84c-2 79 -4 178 9 262c9 62 10 122 32 199c5 18 24 27 37 18zM236 343c-9 6 -16 -4 -22 -10c-17 -18 -33 -38 -45 -60c-11 -20 -24 -39 -32 -65c14 6 25 8 31 18l41 52c9 13 19 25 26 39
c3 9 10 20 1 26z" />
    <glyph glyph-name="l" unicode="l" horiz-adv-x="249" 
d="M175 575c24 -6 32 -25 36 -45c4 -17 3 -35 6 -52c6 -68 -7 -131 -28 -193c-4 -10 -9 -20 -13 -28c-13 -28 -24 -55 -25 -87c0 -17 -4 -35 -6 -53c-7 -61 -1 -86 4 -111c2 -21 -9 -44 -29 -49c-10 -3 -10 0 -16 10c-12 19 -21 40 -23 64c-1 21 -2 43 -1 99
c1 10 1 18 -14 15c-6 0 -8 6 -6 12c3 9 6 18 14 22c6 6 8 12 9 21c0 53 9 106 15 159c9 70 23 141 47 205c6 16 12 16 30 11zM181 500c-6 -44 -14 -86 -14 -131c13 39 20 101 14 131z" />
    <glyph glyph-name="lacute" unicode="&#x13a;" horiz-adv-x="249" 
d="M248 716c4 -2 4 -9 -4 -26c-9 -19 -14 -35 -35 -56l-4 -3c-4 -2 -9 -5 -14 -6c-2 0 -4 0 -7 -1c-15 0 -17 17 -7 37c1 2 1 5 2 7c7 14 17 37 31 45c17 9 29 10 38 3zM175 575c24 -6 32 -25 36 -45c4 -17 3 -35 6 -52c6 -68 -7 -131 -28 -193c-4 -10 -9 -20 -13 -28
c-13 -28 -24 -55 -25 -87c0 -17 -4 -35 -6 -53c-7 -61 -1 -86 4 -111c2 -21 -9 -44 -29 -49c-10 -3 -10 0 -16 10c-12 19 -21 40 -23 64c-1 21 -2 43 -1 99c1 10 1 18 -14 15c-6 0 -8 6 -6 12c3 9 6 18 14 22c6 6 8 12 9 21c0 53 9 106 15 159c9 70 23 141 47 205
c6 16 12 16 30 11zM181 500c-6 -44 -14 -86 -14 -131c13 39 20 101 14 131z" />
    <glyph glyph-name="lcaron" unicode="&#x13e;" horiz-adv-x="249" 
d="M175 575c24 -6 32 -25 36 -45c4 -17 3 -35 6 -52c6 -68 -7 -131 -28 -193c-4 -10 -9 -20 -13 -28c-13 -28 -24 -55 -25 -87c0 -17 -4 -35 -6 -53c-7 -61 -1 -86 4 -111c2 -21 -9 -44 -29 -49c-10 -3 -10 0 -16 10c-12 19 -21 40 -23 64c-1 21 -2 43 -1 99
c1 10 1 18 -14 15c-6 0 -8 6 -6 12c3 9 6 18 14 22c6 6 8 12 9 21c0 53 9 106 15 159c9 70 23 141 47 205c6 16 12 16 30 11zM330 565c4 -2 4 -9 -4 -26c-9 -19 -14 -35 -35 -56l-4 -3c-4 -2 -9 -5 -14 -6c-2 0 -4 0 -7 -1c-15 0 -17 17 -7 37c1 2 1 5 2 7c7 14 17 37 31 45
c17 9 29 10 38 3zM181 500c-6 -44 -14 -86 -14 -131c13 39 20 101 14 131z" />
    <glyph glyph-name="ldot" unicode="&#x140;" horiz-adv-x="249" 
d="M175 575c24 -6 32 -25 36 -45c4 -17 3 -35 6 -52c6 -68 -7 -131 -28 -193c-4 -10 -9 -20 -13 -28c-13 -28 -24 -55 -25 -87c0 -17 -4 -35 -6 -53c-7 -61 -1 -86 4 -111c2 -21 -9 -44 -29 -49c-10 -3 -10 0 -16 10c-12 19 -21 40 -23 64c-1 21 -2 43 -1 99
c1 10 1 18 -14 15c-6 0 -8 6 -6 12c3 9 6 18 14 22c6 6 8 12 9 21c0 53 9 106 15 159c9 70 23 141 47 205c6 16 12 16 30 11zM181 500c-6 -44 -14 -86 -14 -131c13 39 20 101 14 131zM-15 223c9 9 23 5 25 -8c1 -9 8 -17 9 -27c0 -7 -3 -13 -3 -20c0 -1 -2 -2 -3 -1
c-5 1 -10 -6 -14 -2c-8 -2 -11 2 -15 7c-8 8 -13 17 -11 28c1 9 5 17 12 23z" />
    <glyph glyph-name="lslash" unicode="&#x142;" horiz-adv-x="249" 
d="M360 384c3 -9 -7 -24 -15 -24c-10 0 -15 -4 -22 -14c-11 -12 -22 -22 -33 -34c-57 -57 -92 -97 -139 -153c-2 -13 -4 -28 -6 -42c-7 -61 -1 -86 4 -111c2 -21 -9 -44 -29 -49c-10 -3 -10 0 -16 10c-12 19 -21 40 -23 64c-1 15 -1 31 -1 61l-3 1l-25 16c1 2 2 5 2 9
c3 0 4 4 6 6c2 5 6 10 11 15l6 5c-2 2 -5 2 -11 1c-6 0 -8 6 -6 12c3 9 6 18 14 22c6 6 8 12 9 21c0 53 9 106 15 159c9 70 23 141 47 205c6 16 12 16 30 11c24 -6 32 -25 36 -45c4 -17 3 -35 6 -52c6 -68 -7 -131 -28 -193c-4 -10 -9 -20 -13 -28l-5 -11
c80 84 40 46 140 145c1 1 3 3 5 4c4 3 8 6 14 8l27 -16c1 0 3 -2 3 -3zM181 500c-6 -44 -14 -86 -14 -131c13 39 20 101 14 131z" />
    <glyph glyph-name="m" unicode="m" horiz-adv-x="547" 
d="M95 406c11 0 20 -6 24 -18c4 -14 6 -28 5 -43c-3 -41 1 -81 0 -122c12 27 27 53 41 79c12 25 29 47 46 68c17 20 56 22 76 3c18 -15 33 -33 31 -63c11 13 20 24 30 34c14 16 31 30 52 37c10 3 19 5 29 0c22 -10 45 -19 60 -41c9 -12 10 -24 4 -36l-8 -32
c-5 -26 -6 -55 -17 -78c-12 -28 -20 -70 -25 -100c-3 -21 12 -63 -15 -74c-5 -2 -8 -7 -12 -11c-10 -12 -13 -12 -22 0c-17 21 -23 46 -25 73c-1 29 5 58 12 86c12 49 24 97 41 144c3 8 10 17 2 23s-14 -5 -20 -9c-18 -12 -28 -31 -39 -49c-18 -30 -30 -56 -40 -71l-15 -29
c-1 -16 -12 -22 -23 -28c-10 -6 -20 1 -29 5c-16 8 -24 20 -25 41c-1 46 8 92 10 138c1 4 2 19 0 25l-16 -11c-52 -51 -63 -119 -79 -180c-1 -4 -3 -8 -2 -12c3 -19 -5 -36 -10 -54c-7 -27 -4 -46 -9 -73c-3 -17 -16 -13 -25 -18c-2 -1 -5 1 -7 3c-3 2 -5 7 -9 8
c-20 6 -21 23 -25 40c-14 61 -12 122 -8 183c2 27 3 54 5 81c1 22 9 43 16 63c5 15 9 18 21 18z" />
    <glyph glyph-name="n" unicode="n" horiz-adv-x="352" 
d="M94 367c14 -2 29 -18 29 -34c1 -14 1 -28 -3 -41c-2 -8 -3 -28 -1 -35c12 0 19 23 25 31c10 15 24 29 38 40c46 37 101 28 113 -13c9 -29 9 -58 4 -87c-8 -42 -18 -83 -21 -125c-2 -30 -11 -59 -7 -90c1 -12 -8 -20 -14 -29c-3 -4 -8 -3 -13 -1c-8 3 -17 6 -26 10
c-11 4 -15 15 -18 26c-2 8 -3 16 -3 24c0 24 0 47 3 70c5 55 17 109 29 163c3 15 7 30 7 49c-43 0 -67 -37 -83 -95c-19 -69 -35 -140 -38 -209c0 -14 6 -54 -21 -39c-14 8 -24 17 -29 36c-12 50 -15 101 -14 152c0 29 -1 59 -1 88c1 27 10 53 16 79c0 1 0 2 1 4
c5 21 13 28 27 26z" />
    <glyph glyph-name="nacute" unicode="&#x144;" horiz-adv-x="352" 
d="M251 511c4 -2 4 -9 -4 -26c-9 -19 -14 -35 -35 -56l-4 -3c-4 -2 -9 -5 -14 -6c-2 0 -4 0 -7 -1c-15 0 -17 17 -7 37c1 2 1 5 2 7c7 14 17 37 31 45c17 9 29 10 38 3zM94 367c14 -2 29 -18 29 -34c1 -14 1 -28 -3 -41c-2 -8 -3 -28 -1 -35c12 0 19 23 25 31
c10 15 24 29 38 40c46 37 101 28 113 -13c9 -29 9 -58 4 -87c-8 -42 -18 -83 -21 -125c-2 -30 -11 -59 -7 -90c1 -12 -8 -20 -14 -29c-3 -4 -8 -3 -13 -1c-8 3 -17 6 -26 10c-11 4 -15 15 -18 26c-2 8 -3 16 -3 24c0 24 0 47 3 70c5 55 17 109 29 163c3 15 7 30 7 49
c-43 0 -67 -37 -83 -95c-19 -69 -35 -140 -38 -209c0 -14 6 -54 -21 -39c-14 8 -24 17 -29 36c-12 50 -15 101 -14 152c0 29 -1 59 -1 88c1 27 10 53 16 79c0 1 0 2 1 4c5 21 13 28 27 26z" />
    <glyph glyph-name="ncaron" unicode="&#x148;" horiz-adv-x="352" 
d="M120 530c8 -6 14 -12 20 -19l1 -1c19 -24 41 -45 59 -69c5 -5 5 -5 9 0c8 9 13 19 19 29c8 10 27 36 35 46c5 3 6 5 9 8c3 4 6 6 10 5c4 0 8 -3 5 -7c-4 -7 -5 -15 -12 -19c-4 -4 -17 -23 -20 -26c-9 -11 -19 -22 -24 -34c-2 -5 -6 -10 -12 -14l-14 -14
c-6 -8 -16 -9 -24 -9c-6 0 -8 1 -10 4c-8 12 -17 22 -28 33c-9 10 -17 20 -25 30c-7 7 -14 15 -20 24c-2 4 -4 7 0 11c3 5 6 9 10 14l6 7c2 0 4 1 6 1zM94 367c14 -2 29 -18 29 -34c1 -14 1 -28 -3 -41c-2 -8 -3 -28 -1 -35c12 0 19 23 25 31c10 15 24 29 38 40
c46 37 101 28 113 -13c9 -29 9 -58 4 -87c-8 -42 -18 -83 -21 -125c-2 -30 -11 -59 -7 -90c1 -12 -8 -20 -14 -29c-3 -4 -8 -3 -13 -1c-8 3 -17 6 -26 10c-11 4 -15 15 -18 26c-2 8 -3 16 -3 24c0 24 0 47 3 70c5 55 17 109 29 163c3 15 7 30 7 49c-43 0 -67 -37 -83 -95
c-19 -69 -35 -140 -38 -209c0 -14 6 -54 -21 -39c-14 8 -24 17 -29 36c-12 50 -15 101 -14 152c0 29 -1 59 -1 88c1 27 10 53 16 79c0 1 0 2 1 4c5 21 13 28 27 26z" />
    <glyph glyph-name="ntilde" unicode="&#xf1;" horiz-adv-x="324" 
d="M141 517c14 1 28 -5 41 -11c11 -7 19 -16 27 -25c8 -8 23 -9 33 -3c5 3 9 8 10 13c2 5 2 13 5 17c9 8 11 -9 11 -14c-1 -24 -20 -42 -42 -42c-4 1 -7 1 -10 2c-10 3 -17 10 -25 16c-5 3 -9 4 -13 6c-9 5 -18 7 -27 7c-16 1 -22 -9 -29 -23c-4 -8 -15 -18 -23 -12
c-8 5 -8 16 -6 25c4 13 10 21 17 31c9 8 20 12 31 13zM82 388c14 -2 29 -18 29 -34c1 -14 1 -28 -3 -41c-2 -8 -3 -18 -1 -25c12 0 19 23 25 31c10 15 24 29 38 40c21 17 44 19 68 19c18 -1 41 -23 45 -42c7 -29 9 -58 4 -87c-8 -42 -18 -83 -21 -125c-2 -30 -11 -59 -7 -90
c1 -12 -8 -20 -14 -29c-3 -4 -8 -3 -13 -1c-8 3 -17 6 -26 10c-11 4 -15 15 -18 26c-2 8 -3 16 -3 24c0 24 0 47 3 70c5 55 17 109 29 163c3 15 7 30 7 49c-37 -27 -67 -51 -83 -95c-24 -66 -35 -140 -38 -209c0 -14 6 -54 -21 -39c-14 8 -24 17 -29 36
c-12 50 -15 101 -14 152c0 29 -1 59 -1 88c1 27 10 53 16 79c0 1 0 2 1 4c5 21 13 28 27 26z" />
    <glyph glyph-name="o" unicode="o" horiz-adv-x="305" 
d="M166 374c17 -5 37 -3 53 -14l12 -11c0 -1 1 -2 1 -3h2l9 -18l3 -7v-3l4 -15l3 -14v-7l1 -3c4 -96 -16 -138 -32 -196c0 -4 -2 -7 -2 -10c-5 -8 -19 -36 -23 -41c-15 -16 -28 -33 -53 -30c-30 4 -56 14 -70 43c-24 46 -27 97 -21 148c2 23 9 46 18 67c13 30 24 59 43 86
c5 7 11 14 17 19c10 8 22 14 35 9zM190 345c-7 0 -11 -8 -13 -14c-16 -50 -36 -98 -45 -150c-5 -23 -6 -47 -7 -71c-2 -30 -3 -2 4 -57c0 -9 3 -16 8 -23c6 -9 11 -9 20 -2l20 25c17 31 31 64 35 99c5 54 -1 107 1 160c-1 2 -1 3 -1 4c-1 7 -4 13 -8 18c-5 4 -7 13 -14 11z
" />
    <glyph glyph-name="oacute" unicode="&#xf3;" horiz-adv-x="310" 
d="M255 521c4 -2 4 -9 -4 -26c-9 -19 -14 -35 -35 -56l-4 -3c-4 -2 -9 -5 -14 -6c-2 0 -4 0 -7 -1c-15 0 -17 17 -7 37c1 2 1 5 2 7c7 14 17 37 31 45c17 9 29 10 38 3zM203 364l30 -19c15 -10 18 -29 20 -46s7 -35 7 -52c-2 -66 -15 -132 -40 -193c-9 -23 -24 -34 -43 -49
c-10 -7 -23 -6 -33 -2c-31 11 -60 27 -76 58c-14 26 -20 53 -17 81c2 30 5 59 17 87c21 49 44 96 88 129c17 14 27 16 47 6zM210 331c-28 41 -63 -83 -68 -99c-13 -38 -25 -78 -25 -118c-1 -33 8 -63 33 -85c27 -23 49 47 54 62c14 42 27 85 28 129c2 35 -1 81 -22 111z" />
    <glyph glyph-name="ocaron" unicode="&#x1d2;" horiz-adv-x="305" 
d="M110 541c8 -6 14 -12 20 -19l1 -1c19 -24 41 -45 59 -69c5 -5 5 -5 9 0c8 9 13 19 19 29c8 10 27 36 35 46c5 3 6 5 9 8c3 4 6 6 10 5c4 0 8 -3 5 -7c-4 -7 -5 -15 -12 -19c-4 -4 -17 -23 -20 -26c-9 -11 -19 -22 -24 -34c-2 -5 -6 -10 -12 -14l-14 -14
c-6 -8 -16 -9 -24 -9c-6 0 -8 1 -10 4c-8 12 -17 22 -28 33c-9 10 -17 20 -25 30c-7 7 -14 15 -20 24c-2 4 -4 7 0 11c3 5 6 9 10 14l6 7c2 0 4 1 6 1zM166 374c17 -5 37 -3 53 -14l12 -11c0 -1 1 -2 1 -3h2l9 -18l3 -7v-3l4 -15l3 -14v-7l1 -3c4 -96 -16 -138 -32 -196
c0 -4 -2 -7 -2 -10c-5 -8 -19 -36 -23 -41c-15 -16 -28 -33 -53 -30c-30 4 -56 14 -70 43c-24 46 -27 97 -21 148c2 23 9 46 18 67c13 30 24 59 43 86c5 7 11 14 17 19c10 8 22 14 35 9zM190 345c-7 0 -11 -8 -13 -14c-16 -50 -36 -98 -45 -150c-5 -23 -6 -47 -7 -71
c-2 -30 -3 -2 4 -57c0 -9 3 -16 8 -23c6 -9 11 -9 20 -2l20 25c17 31 31 64 35 99c5 54 -1 107 1 160c-1 2 -1 3 -1 4c-1 7 -4 13 -8 18c-5 4 -7 13 -14 11z" />
    <glyph glyph-name="ocircumflex" unicode="&#xf4;" horiz-adv-x="305" 
d="M211 537c6 0 8 -2 10 -5c7 -12 16 -23 26 -34c8 -10 16 -21 24 -32c6 -7 13 -15 18 -24c2 -4 3 -7 0 -11c-3 -5 -7 -9 -11 -14c-2 -2 -4 -5 -7 -7h-6c-7 6 -13 13 -18 20l-1 1c-18 25 -39 47 -56 72c-4 5 -4 5 -9 0c-8 -8 -14 -18 -21 -27c-7 -11 -28 -35 -37 -44
c-4 -3 -6 -6 -9 -9s-6 -5 -10 -4c-4 0 -8 4 -5 8c4 6 6 14 13 18c4 3 19 22 22 25c9 10 19 20 25 33c3 5 7 9 12 13s10 8 15 13c7 7 17 9 25 8zM166 374c17 -5 37 -3 53 -14l12 -11c0 -1 1 -2 1 -3h2l9 -18l3 -7v-3l4 -15l3 -14v-7l1 -3c4 -96 -16 -138 -32 -196
c0 -4 -2 -7 -2 -10c-5 -8 -19 -36 -23 -41c-15 -16 -28 -33 -53 -30c-30 4 -56 14 -70 43c-24 46 -27 97 -21 148c2 23 9 46 18 67c13 30 24 59 43 86c5 7 11 14 17 19c10 8 22 14 35 9zM190 345c-7 0 -11 -8 -13 -14c-16 -50 -36 -98 -45 -150c-5 -23 -6 -47 -7 -71
c-2 -30 -3 -2 4 -57c0 -9 3 -16 8 -23c6 -9 11 -9 20 -2l20 25c17 31 31 64 35 99c5 54 -1 107 1 160c-1 2 -1 3 -1 4c-1 7 -4 13 -8 18c-5 4 -7 13 -14 11z" />
    <glyph glyph-name="ocircumflexacute" unicode="&#x1ed1;" horiz-adv-x="305" 
d="M265 652c4 -2 4 -9 -4 -26c-9 -19 -14 -35 -35 -56l-4 -3c-4 -2 -9 -5 -14 -6c-2 0 -4 0 -7 -1c-15 0 -17 17 -7 37c1 2 1 5 2 7c7 14 17 37 31 45c17 9 29 10 38 3zM194 531c6 0 8 -2 10 -5c7 -12 16 -23 26 -34c8 -10 16 -21 24 -32c6 -7 13 -15 18 -24
c2 -4 3 -7 0 -11c-3 -5 -7 -9 -11 -14c-2 -2 -4 -5 -7 -7h-6c-7 6 -13 13 -18 20l-1 1c-18 25 -39 47 -56 72c-4 5 -4 5 -9 0c-8 -8 -14 -18 -21 -27c-7 -11 -28 -35 -37 -44c-4 -3 -6 -6 -9 -9s-6 -5 -10 -4c-4 0 -8 4 -5 8c4 6 6 14 13 18c4 3 19 22 22 25
c9 10 19 20 25 33c3 5 7 9 12 13s10 8 15 13c7 7 17 9 25 8zM166 374c17 -5 37 -3 53 -14l12 -11c0 -1 1 -2 1 -3h2l9 -18l3 -7v-3l4 -15l3 -14v-7l1 -3c4 -96 -16 -138 -32 -196c0 -4 -2 -7 -2 -10c-5 -8 -19 -36 -23 -41c-15 -16 -28 -33 -53 -30c-30 4 -56 14 -70 43
c-24 46 -27 97 -21 148c2 23 9 46 18 67c13 30 24 59 43 86c5 7 11 14 17 19c10 8 22 14 35 9zM190 345c-7 0 -11 -8 -13 -14c-16 -50 -36 -98 -45 -150c-5 -23 -6 -47 -7 -71c-2 -30 -3 -2 4 -57c0 -9 3 -16 8 -23c6 -9 11 -9 20 -2l20 25c17 31 31 64 35 99
c5 54 -1 107 1 160c-1 2 -1 3 -1 4c-1 7 -4 13 -8 18c-5 4 -7 13 -14 11z" />
    <glyph glyph-name="ocircumflexgrave" unicode="&#x1ed3;" horiz-adv-x="305" 
d="M147 659c3 -2 8 -2 10 -5c8 -11 20 -14 29 -22c7 -6 15 -11 21 -20c3 -5 8 -6 11 -9c5 -3 9 -8 15 -11c5 -2 6 -8 11 -11c2 -2 1 -5 -1 -6c-3 -2 -4 -5 -3 -9c1 -3 -2 -7 -3 -8c-4 -3 -4 -8 -5 -13c-1 -8 -12 -10 -18 -5l-27 27c-4 4 -9 8 -10 11c-2 5 -6 3 -8 6
c-2 4 -5 6 -8 10c-7 12 -18 22 -24 35c-4 7 -7 13 -5 20c1 5 2 11 7 10c3 0 5 -4 8 0zM196 525c6 0 8 -2 10 -5c7 -12 16 -23 26 -34c8 -10 16 -21 24 -32c6 -7 13 -15 18 -24c2 -4 3 -7 0 -11c-3 -5 -7 -9 -11 -14c-2 -2 -4 -5 -7 -7h-6c-7 6 -13 13 -18 20l-1 1
c-18 25 -39 47 -56 72c-4 5 -4 5 -9 0c-8 -8 -14 -18 -21 -27c-7 -11 -28 -35 -37 -44c-4 -3 -6 -6 -9 -9s-6 -5 -10 -4c-4 0 -8 4 -5 8c4 6 6 14 13 18c4 3 19 22 22 25c9 10 19 20 25 33c3 5 7 9 12 13s10 8 15 13c7 7 17 9 25 8zM166 374c17 -5 37 -3 53 -14l12 -11
c0 -1 1 -2 1 -3h2l9 -18l3 -7v-3l4 -15l3 -14v-7l1 -3c4 -96 -16 -138 -32 -196c0 -4 -2 -7 -2 -10c-5 -8 -19 -36 -23 -41c-15 -16 -28 -33 -53 -30c-30 4 -56 14 -70 43c-24 46 -27 97 -21 148c2 23 9 46 18 67c13 30 24 59 43 86c5 7 11 14 17 19c10 8 22 14 35 9z
M190 345c-7 0 -11 -8 -13 -14c-16 -50 -36 -98 -45 -150c-5 -23 -6 -47 -7 -71c-2 -30 -3 -2 4 -57c0 -9 3 -16 8 -23c6 -9 11 -9 20 -2l20 25c17 31 31 64 35 99c5 54 -1 107 1 160c-1 2 -1 3 -1 4c-1 7 -4 13 -8 18c-5 4 -7 13 -14 11z" />
    <glyph glyph-name="ocircumflextilde" unicode="&#x1ed7;" horiz-adv-x="305" 
d="M145 620c14 1 28 -5 41 -11c11 -7 19 -16 27 -25c8 -8 23 -9 33 -3c5 3 9 8 10 13c2 5 2 13 5 17c9 8 11 -9 11 -14c-1 -24 -20 -42 -42 -42c-4 1 -7 1 -10 2c-10 3 -17 10 -25 16c-5 3 -9 4 -13 6c-9 5 -18 7 -27 7c-16 1 -22 -9 -29 -23c-4 -8 -15 -18 -23 -12
c-8 5 -8 16 -6 25c4 13 10 21 17 31c9 8 20 12 31 13zM196 525c6 0 8 -2 10 -5c7 -12 16 -23 26 -34c8 -10 16 -21 24 -32c6 -7 13 -15 18 -24c2 -4 3 -7 0 -11c-3 -5 -7 -9 -11 -14c-2 -2 -4 -5 -7 -7h-6c-7 6 -13 13 -18 20l-1 1c-18 25 -39 47 -56 72c-4 5 -4 5 -9 0
c-8 -8 -14 -18 -21 -27c-7 -11 -28 -35 -37 -44c-4 -3 -6 -6 -9 -9s-6 -5 -10 -4c-4 0 -8 4 -5 8c4 6 6 14 13 18c4 3 19 22 22 25c9 10 19 20 25 33c3 5 7 9 12 13s10 8 15 13c7 7 17 9 25 8zM166 374c17 -5 37 -3 53 -14l12 -11c0 -1 1 -2 1 -3h2l9 -18l3 -7v-3l4 -15
l3 -14v-7l1 -3c4 -96 -16 -138 -32 -196c0 -4 -2 -7 -2 -10c-5 -8 -19 -36 -23 -41c-15 -16 -28 -33 -53 -30c-30 4 -56 14 -70 43c-24 46 -27 97 -21 148c2 23 9 46 18 67c13 30 24 59 43 86c5 7 11 14 17 19c10 8 22 14 35 9zM190 345c-7 0 -11 -8 -13 -14
c-16 -50 -36 -98 -45 -150c-5 -23 -6 -47 -7 -71c-2 -30 -3 -2 4 -57c0 -9 3 -16 8 -23c6 -9 11 -9 20 -2l20 25c17 31 31 64 35 99c5 54 -1 107 1 160c-1 2 -1 3 -1 4c-1 7 -4 13 -8 18c-5 4 -7 13 -14 11z" />
    <glyph glyph-name="odieresis" unicode="&#xf6;" horiz-adv-x="305" 
d="M123 486c10 10 25 6 26 -7c2 -9 8 -18 9 -28c0 -7 -4 -13 -4 -19c0 -2 0 -3 -2 -3c-5 2 -10 -6 -15 -2c-8 -1 -11 2 -15 7c-8 9 -13 17 -12 29c2 10 6 17 13 23zM213 486c9 10 24 6 26 -7c2 -9 8 -18 9 -28c1 -7 -4 -13 -3 -19c0 -2 -1 -3 -3 -3c-6 2 -10 -6 -15 -2
c-8 -1 -11 2 -15 7c-8 9 -12 17 -11 29c1 10 5 17 12 23zM166 374c17 -5 37 -3 53 -14l12 -11c0 -1 1 -2 1 -3h2l9 -18l3 -7v-3l4 -15l3 -14v-7l1 -3c4 -96 -16 -138 -32 -196c0 -4 -2 -7 -2 -10c-5 -8 -19 -36 -23 -41c-15 -16 -28 -33 -53 -30c-30 4 -56 14 -70 43
c-24 46 -27 97 -21 148c2 23 9 46 18 67c13 30 24 59 43 86c5 7 11 14 17 19c10 8 22 14 35 9zM190 345c-7 0 -11 -8 -13 -14c-16 -50 -36 -98 -45 -150c-5 -23 -6 -47 -7 -71c-2 -30 -3 -2 4 -57c0 -9 3 -16 8 -23c6 -9 11 -9 20 -2l20 25c17 31 31 64 35 99
c5 54 -1 107 1 160c-1 2 -1 3 -1 4c-1 7 -4 13 -8 18c-5 4 -7 13 -14 11z" />
    <glyph glyph-name="ograve" unicode="&#xf2;" horiz-adv-x="305" 
d="M147 512c3 -2 8 -2 10 -5c8 -11 20 -14 29 -22c7 -6 15 -11 21 -20c3 -5 8 -6 11 -9c5 -3 9 -8 15 -11c5 -2 6 -8 11 -11c2 -2 1 -5 -1 -6c-3 -2 -4 -5 -3 -9c1 -3 -2 -7 -3 -8c-4 -3 -4 -8 -5 -13c-1 -8 -12 -10 -18 -5l-27 27c-4 4 -9 8 -10 11c-2 5 -6 3 -8 6
c-2 4 -5 6 -8 10c-7 12 -18 22 -24 35c-4 7 -7 13 -5 20c1 5 2 11 7 10c3 0 5 -4 8 0zM166 374c17 -5 37 -3 53 -14l12 -11c0 -1 1 -2 1 -3h2l9 -18l3 -7v-3l4 -15l3 -14v-7l1 -3c4 -96 -16 -138 -32 -196c0 -4 -2 -7 -2 -10c-5 -8 -19 -36 -23 -41c-15 -16 -28 -33 -53 -30
c-30 4 -56 14 -70 43c-24 46 -27 97 -21 148c2 23 9 46 18 67c13 30 24 59 43 86c5 7 11 14 17 19c10 8 22 14 35 9zM190 345c-7 0 -11 -8 -13 -14c-16 -50 -36 -98 -45 -150c-5 -23 -6 -47 -7 -71c-2 -30 -3 -2 4 -57c0 -9 3 -16 8 -23c6 -9 11 -9 20 -2l20 25
c17 31 31 64 35 99c5 54 -1 107 1 160c-1 2 -1 3 -1 4c-1 7 -4 13 -8 18c-5 4 -7 13 -14 11z" />
    <glyph glyph-name="ohungarumlaut" unicode="&#x151;" horiz-adv-x="305" 
d="M170 511c4 1 9 2 10 -2c0 -2 -1 -4 2 -6c0 -3 1 -8 0 -9c-6 -10 -4 -20 -7 -30c-2 -7 -4 -15 -8 -23c-2 -4 -2 -8 -2 -11c-1 -5 -5 -10 -5 -15c0 -4 -3 -8 -5 -12c0 -2 -2 -3 -5 -1c-2 0 -5 1 -7 -1s-6 -2 -8 -1c-3 2 -7 0 -10 -1c-7 -1 -13 6 -11 12c4 11 8 20 12 30
c2 4 3 9 4 12c4 3 1 6 3 7c2 4 3 7 4 10c8 10 11 21 19 31c4 4 8 9 14 10zM265 508c4 1 8 2 10 -2c1 -1 -2 -5 1 -6c0 -4 2 -7 0 -10c-5 -10 -4 -19 -6 -29c-3 -6 -4 -15 -8 -23c-2 -3 -2 -8 -3 -11c-1 -5 -3 -9 -4 -15c0 -4 -4 -8 -5 -13c0 -1 -3 -1 -5 0c-3 0 -4 0 -7 -1
c-2 -2 -7 -2 -7 0c-5 1 -8 -1 -12 -2c-6 -1 -12 6 -9 13c3 10 6 20 11 30c1 4 3 8 5 11c2 4 0 5 1 8c3 2 4 6 4 9c8 11 12 22 20 31c4 4 7 10 14 10zM166 374c17 -5 37 -3 53 -14l12 -11c0 -1 1 -2 1 -3h2l9 -18l3 -7v-3l4 -15l3 -14v-7l1 -3c4 -96 -16 -138 -32 -196
c0 -4 -2 -7 -2 -10c-5 -8 -19 -36 -23 -41c-15 -16 -28 -33 -53 -30c-30 4 -56 14 -70 43c-24 46 -27 97 -21 148c2 23 9 46 18 67c13 30 24 59 43 86c5 7 11 14 17 19c10 8 22 14 35 9zM190 345c-7 0 -11 -8 -13 -14c-16 -50 -36 -98 -45 -150c-5 -23 -6 -47 -7 -71
c-2 -30 -3 -2 4 -57c0 -9 3 -16 8 -23c6 -9 11 -9 20 -2l20 25c17 31 31 64 35 99c5 54 -1 107 1 160c-1 2 -1 3 -1 4c-1 7 -4 13 -8 18c-5 4 -7 13 -14 11z" />
    </font>
</defs>
</svg>
