<?xml version="1.0" standalone="no"?>
<!DOCTYPE svg PUBLIC "-//W3C//DTD SVG 1.1//EN" "http://www.w3.org/Graphics/SVG/1.1/DTD/svg11.dtd" >
<svg>
<metadata>
Created by FontForge 20120731 at Tue May 30 09:53:17 2017
 By www-data
</metadata>
<defs>
<font id="icomoon" horiz-adv-x="1024" >
  <font-face 
    font-family="icomoon"
    font-weight="400"
    font-stretch="normal"
    units-per-em="1024"
    panose-1="0 0 0 0 0 0 0 0 0 0"
    ascent="960"
    descent="-64"
    bbox="-0.333333 -64 1024.33 960"
    underline-thickness="0"
    underline-position="0"
    unicode-range="U+0001-FFFD"
  />
<missing-glyph 
 />
    <glyph glyph-name=".notdef" unicode="&#xfffd;" 
 />
    <glyph glyph-name="glyph1" horiz-adv-x="0" 
d="M0 0v0v0v0z" />
    <glyph glyph-name="glyph1" horiz-adv-x="0" 
d="M0 0v0v0v0z" />
    <glyph glyph-name="uni0001" horiz-adv-x="0" 
d="M0 0v0v0v0z" />
    <glyph glyph-name="space" unicode=" " horiz-adv-x="512" 
d="M0 0v0v0v0z" />
    <glyph glyph-name="uniE900" unicode="&#xe900;" 
d="M0 960v-1024h1024v1024h-1024zM677 678h-80q-12 0 -21.5 -9.5t-9.5 -18.5v-82h111q-3 -47 -8 -83.5l-5 -36.5h-99v-354h-147v354h-71v120h71v97q0 14 17.5 75.5t133.5 61.5h108v-124v0z" />
    <glyph glyph-name="uniE901" unicode="&#xe901;" 
d="M809 891l-67 69l-527 -512l527 -512l67 69l-457 443z" />
    <glyph glyph-name="uniE902" unicode="&#xe902;" 
d="M0 787v-678h1024v678h-1024zM512 368l-420 369h840l-420 -369v0zM345 448l-295 -258v517l295 -259v0zM383 415l129 -114l129 114l291 -256h-840l291 256v0zM679 448l295 259v-517l-295 258v0z" />
    <glyph glyph-name="uniE903" unicode="&#xe903;" 
d="M1001 151l-158 158q-24 23 -58 22.5t-58 -24.5l-80 -80l-8 4t-8 5q-37 21 -87 52.5t-104 85.5q-55 55 -86.5 105t-52.5 87q-2 4 -4.5 8t-4.5 8l80 79q24 25 25 59t-23 58l-158 158q-24 23 -58 22.5t-58 -24.5l-45 -45l1 -1q-11 -15 -20 -31t-16 -34q-7 -17 -11 -33.5
t-6 -32.5q-8 -65 3.5 -128t44.5 -129t89 -137t136 -152q111 -111 209 -168t171.5 -80.5t118 -24t47.5 -0.5q17 2 33.5 6t32.5 10q18 7 34.5 16.5t30.5 20.5l1 -1l45 44q24 25 25 59t-23 58v0z" />
    <glyph glyph-name="uniE904" unicode="&#xe904;" 
d="M910 562q0 -119 -56.5 -230t-123.5 -196t-123.5 -136l-56.5 -51q-16 -13 -38 -13t-38 13l-56.5 51t-123.5 136t-123.5 196t-56.5 230q0 83 31.5 155.5t85.5 126t126.5 85t154.5 31.5t154.5 -31.5t126.5 -85t85.5 -126t31.5 -155.5z" />
    <glyph glyph-name="uniE905" unicode="&#xe905;" 
d="M512 362q-41 0 -77.5 16t-64 43t-43 63.5t-15.5 77.5q0 42 15.5 78.5t43 63.5t64 42.5t77.5 15.5t77.5 -15.5t64 -42.5t43 -63.5t15.5 -78.5q0 -41 -15.5 -77.5t-43 -63.5t-64 -43t-77.5 -16z" />
    <glyph glyph-name="uniE906" unicode="&#xe906;" 
d="M989 492q-17 17 -38 26t-45 9h-40v157q0 13 -3 26.5t-9 27.5q-6 15 -13.5 27t-15.5 20l-94 94q-9 8 -20.5 15.5t-26.5 13.5q-14 6 -28 9.5t-26 3.5h-413q-13 0 -23.5 -4.5t-18.5 -13.5q-9 -8 -13 -18.5t-4 -22.5v-335h-40q-24 0 -45 -9t-38 -26q-18 -17 -26.5 -38
t-8.5 -45v-256q0 -4 1.5 -7.5t4.5 -6.5t6.5 -4.5t7.5 -1.5h138v-99q0 -12 4 -22.5t13 -18.5q8 -9 18.5 -13.5t23.5 -4.5h590q13 0 23.5 4.5t18.5 13.5q9 8 13 18.5t4 22.5v99h138q4 0 7.5 1.5t6.5 4.5t4.5 6.5t1.5 7.5v256q0 24 -8.5 45t-26.5 38v0zM788 54h-552v158h552
v-158zM788 448h-552v394h394v-99q0 -12 4.5 -22.5t12.5 -18.5q9 -9 19.5 -13.5t22.5 -4.5h99v-236v0zM934 381q-6 -6 -13 -9t-15 -3t-15 3t-13 9t-9 13t-3 15t3 14.5t9 12.5t13 9t15 3t15 -3t13 -9q5 -6 8 -12.5t3 -14.5t-3 -15t-8 -13z" />
    <glyph glyph-name="uniE907" unicode="&#xe907;" 
d="M284 960l-54 -53l457 -459l-457 -459l54 -53l510 512z" />
    <glyph glyph-name="uniE908" unicode="&#xe908;" 
d="M839 960q-77 0 -131 -54t-54 -131v-6.5t1 -6.5l-342 -160q-25 24 -58 37.5t-70 13.5q-77 0 -131 -54t-54 -131t54 -131t131 -54q24 0 46.5 6t42.5 17l148 -125q-5 -14 -7.5 -29t-2.5 -31q0 -77 54 -131t131 -54q76 0 130.5 54t54.5 131t-54.5 131t-130.5 54
q-24 0 -46.5 -6t-42.5 -17l-148 125q5 14 7.5 29t2.5 31v6.5t-1 6.5l342 160q25 -24 58 -37.5t70 -13.5q77 0 131 54t54 131t-54 131t-131 54v0z" />
    <glyph glyph-name="uniE909" unicode="&#xe909;" 
d="M965 612q7 -5 10 -11.5t3 -14.5v-616q0 -7 -2 -13t-7 -11t-11 -7.5t-13 -2.5h-253q-7 0 -13 2.5t-11 7.5t-7.5 11t-2.5 13v377h-291v-377q0 -7 -2.5 -13t-7.5 -11t-11 -7.5t-13 -2.5h-254q-7 0 -13 2.5t-11 7.5t-7 11t-2 13v616q0 8 3 14.5t10 11.5l425 340q4 4 9 6t11 2
t11.5 -2t10.5 -6l439 -340v0z" />
    <glyph glyph-name="uniE90A" unicode="&#xe90a;" 
d="M512 638q67 0 114 47t47 114q0 66 -47 113.5t-114 47.5t-114 -47.5t-47 -113.5q0 -67 47 -114t114 -47zM512 927q53 0 91 -37.5t38 -90.5t-38 -91t-91 -38t-91 38t-38 91t38 90.5t91 37.5v0zM512 572q49 0 92.5 -18t76.5 -49t53.5 -73t23.5 -90h-378q-7 0 -11.5 -4.5
t-4.5 -11.5t4.5 -11.5t11.5 -4.5h395q6 0 11 4.5t5 11.5q0 58 -22 108.5t-60 88.5t-88.5 60t-108.5 22t-108.5 -22t-88.5 -60t-60 -88.5t-22 -108.5q0 -7 5 -11.5t11 -4.5h66q7 0 11.5 4.5t4.5 11.5t-4.5 11.5t-11.5 4.5h-49q3 48 23.5 90t53.5 73t76.5 49t92.5 18v0z
M306 137l-90 15l-42 81q-2 4 -6 6.5t-8 2.5q-5 0 -9 -2.5t-6 -6.5l-42 -81l-89 -15q-5 -1 -8.5 -4t-4.5 -7q-2 -4 -1 -8.5t5 -7.5l63 -65l-13 -90q-1 -5 1 -9t6 -7q3 -3 7.5 -3t8.5 2l82 40l81 -40q2 -1 4 -1.5t3 -0.5q3 0 5.5 1t4.5 2q4 3 5.5 7t1.5 9l-14 90l64 65
q3 3 4 7.5t0 8.5q-2 4 -5.5 7t-7.5 4v0zM222 62q-3 -3 -4 -6.5t0 -7.5l10 -67l-61 30q-3 2 -7 2t-8 -2l-60 -30l10 67q0 4 -1 7.5t-4 6.5l-47 48l67 11q4 1 7 3t4 6l32 60l31 -60q2 -4 5 -6t7 -3l67 -11l-48 -48v0zM658 137l-90 15l-42 81q-2 4 -5.5 6.5t-8.5 2.5t-8.5 -2.5
t-5.5 -6.5l-42 -81l-90 -15q-5 -1 -8.5 -4t-4.5 -7t0 -8.5t4 -7.5l64 -65l-14 -90q0 -5 1.5 -9t5.5 -7q3 -3 8 -3t9 2l81 40l81 -40q2 -1 4 -1.5t4 -0.5t4.5 1t4.5 2q4 3 5.5 7t1.5 9l-14 90l64 65q3 3 4 7.5t0 8.5t-4.5 7t-8.5 4v0zM574 62q-2 -3 -3.5 -6.5t-0.5 -7.5
l10 -67l-61 30q-1 1 -3 1.5t-4 0.5t-4 -0.5t-3 -1.5l-61 -30l10 67q1 4 -0.5 7.5t-3.5 6.5l-48 48l67 11q4 1 7 3t5 6l31 60l31 -60q2 -4 5 -6t7 -3l67 -11l-48 -48v0zM1023 126q-1 4 -4.5 7t-8.5 4l-89 15l-42 81q-2 4 -6 6.5t-9 2.5q-4 0 -8 -2.5t-6 -6.5l-42 -81l-90 -15
q-4 -1 -7.5 -4t-5.5 -7q-1 -4 0 -8.5t4 -7.5l64 -65l-14 -90q0 -5 1.5 -9t5.5 -7t8.5 -3t8.5 2l81 40l82 -40q1 -1 3 -1.5t4 -0.5t4.5 1t4.5 2q4 3 6 7t1 9l-13 90l63 65q4 3 5 7.5t-1 8.5v0zM927 62q-3 -3 -4 -6.5t-1 -7.5l10 -67l-60 30q-2 1 -4 1.5t-4 0.5t-3.5 -0.5
t-3.5 -1.5l-61 -30l10 67q1 4 0 7.5t-4 6.5l-48 48l67 11q4 1 7 3t5 6l31 60l32 -60q1 -4 4.5 -6t6.5 -3l67 -11l-47 -48v0zM512 725q16 0 30.5 6.5t25.5 18.5q4 5 3.5 12t-5.5 11q-5 5 -11.5 4.5t-11.5 -5.5q-6 -7 -14 -11t-17 -4t-17 4t-14 11q-5 5 -11.5 5.5t-11.5 -4.5
q-5 -4 -5.5 -11t3.5 -12q11 -12 25.5 -18.5t30.5 -6.5v0z" />
    <glyph glyph-name="uniE90B" unicode="&#xe90b;" 
d="M1014 557l-344 259q-7 6 -15.5 6t-15.5 -6l-56 -42l-57 42q-7 6 -15.5 6t-15.5 -6l-55 -41l-55 41q-7 6 -15.5 6t-15.5 -6l-344 -259q-5 -4 -7.5 -9t-2.5 -11v-437q0 -10 7.5 -18t18.5 -8h972q11 0 18.5 8t7.5 18v437q0 6 -2.5 11t-7.5 9v0zM973 126h-93v411q0 6 -2.5 11
t-7.5 9l-245 185l30 22l318 -240v-398v0zM739 126v411q0 6 -2.5 11t-7.5 9l-246 186l28 21l318 -240v-398h-90v0zM412 126h-85v186h85v-186zM463 126v212q0 10 -7.5 17.5t-18.5 7.5h-135q-11 0 -18.5 -7.5t-7.5 -17.5v-212h-225v398l318 240l319 -240v-398h-225v0z" />
    <glyph glyph-name="uniE90C" unicode="&#xe90c;" 
d="M801 145q-3 6 -9 8.5t-13 0.5l-146 -61q-22 -9 -45.5 -10t-46.5 6l-342 113q-16 5 -33 4.5t-33 -7.5l-13 -6q-7 -3 -9.5 -9.5t0.5 -12.5t9.5 -8.5t12.5 -0.5l14 6q9 5 20 5.5t21 -3.5l342 -112q13 -5 26 -7t26 -2q17 0 33 3.5t31 9.5l146 61q6 2 9 8.5t0 13.5v0z
M1018 303h-1q-11 27 -36 39.5t-53 6.5q4 11 3.5 23t-5.5 22q-5 13 -14.5 22t-21.5 14h-0.5h-0.5q-10 4 -20.5 4.5t-21.5 -1.5v108q0 7 -4.5 12t-11.5 5t-12 -5t-5 -12v-231l-147 -51q-12 -5 -24.5 -5t-24.5 5l-172 60v67l165 -56q25 -9 49.5 1.5t35.5 34.5h21q6 0 11 5t5 12
v193q0 7 -5 12t-11 5h-174q-7 0 -12 -5t-5 -12v-67l-80 31v125l184 122l184 -122v-69q0 -6 5 -11t12 -5t11.5 5t4.5 11v47l46 -31q2 -1 4.5 -1.5t4.5 -0.5q4 0 8 1.5t6 5.5q4 6 2.5 12.5t-6.5 10.5l-91 60v130q0 7 -5 12t-12 5h-100q-7 0 -12 -5t-5 -12v-41l-48 32
q-4 2 -9 2t-9 -2l-273 -181q-6 -4 -7.5 -10.5t2.5 -12.5t11 -7t12 2l46 31v-90l-56 22q-2 0 -3.5 1t-4.5 1q-44 16 -92 9t-88 -33l-161 -107q-5 -4 -6.5 -11t2.5 -13q4 -5 10.5 -6.5t12.5 2.5l160 107q34 22 74.5 28t77.5 -7q1 -1 2.5 -1.5t3.5 -0.5l302 -116q6 -3 11.5 -8
t8.5 -11q3 -7 3 -14.5t-3 -14.5q-6 -12 -18.5 -17.5t-25.5 -1.5l-192 66q-11 4 -23.5 3.5t-23.5 -5.5q-14 -6 -23.5 -17.5t-13.5 -25.5q-6 -25 6 -47.5t36 -30.5l219 -77q17 -6 35.5 -6t35.5 6l252 88q17 6 33.5 -1t23.5 -24v0q4 -9 4 -18t-4 -17q-3 -9 -9.5 -15t-14.5 -10
l-135 -56q-6 -3 -8.5 -9t-0.5 -13q2 -5 6.5 -7.5t9.5 -2.5q1 0 2.5 0.5t3.5 0.5l134 56q15 6 26 17.5t17 25.5q6 15 6 30.5t-6 30.5v0zM721 813h66v-90l-66 44v46zM658 459l-98 37v64h140v-149q-1 3 -2 5.5t-2 5.5q-5 13 -15 22.5t-23 14.5v0zM412 330l-13 5q-12 4 -18 15
t-3 23q2 7 7 12.5t11 8.5q4 2 8 2.5t8 0.5v-67v0zM895 356l-8 -21l-40 -13v75v0q7 4 15 4.5t15 -2.5v0h1q6 -2 10.5 -6.5t6.5 -10.5q3 -7 3 -13.5t-3 -12.5v0z" />
    <glyph glyph-name="uniE90D" unicode="&#xe90d;" 
d="M980 264q16 20 23.5 41.5t6.5 43.5q-1 24 -10 43t-18 31q10 26 8.5 62.5t-35.5 68.5q-26 23 -69 33.5t-103 7.5q-43 -2 -73.5 -7.5t-32.5 -5.5v0q-8 -2 -16.5 -3.5t-17.5 -3.5q0 10 4 38.5t23 85.5q23 69 21.5 121t-26.5 87q-27 37 -62 45t-47 8t-23 -5t-19 -14
q-18 -21 -19 -52.5t1 -49.5q-10 -28 -29.5 -73.5t-43 -92t-50 -87.5t-51.5 -60q-1 -1 -2 -1.5t-2 -1.5q-14 -16 -24.5 -32t-17.5 -31q-9 5 -19.5 7.5t-22.5 2.5h-131q-37 0 -63 -26t-26 -63v-348q0 -37 26.5 -63t62.5 -26h131q14 0 27 4.5t24 12.5l51 -6q3 -1 28 -4t64.5 -6
t89.5 -5t103 -1q19 -1 37 -2t35 -1q29 0 54 2t45 7q50 10 83 31t50 52q13 23 15 45t0 37q32 29 41 58.5t8 52.5q-1 13 -3.5 24t-5.5 19v0zM103 2q-13 0 -22 9.5t-9 21.5v349q0 13 9.5 22t21.5 9h131q13 0 22 -9.5t9 -21.5v-348q0 -13 -9 -22.5t-22 -9.5h-131v0v0zM925 289
q-7 -7 -8 -17t4 -18l4.5 -10t5.5 -26q1 -21 -9 -39.5t-31 -34.5q-8 -6 -10.5 -15t0.5 -18l2.5 -17.5t-8.5 -37.5q-11 -19 -34.5 -33t-60.5 -21q-29 -7 -68 -8t-88 3h-1h-2q-51 -1 -101 1t-89 5t-63 6t-25 3v0l-22 3q1 4 1.5 9t0.5 9v349q0 7 -1 13.5t-3 12.5q3 11 12 32
t28 42q36 28 70 84t61 112.5t44.5 100t18.5 47.5t1.5 7.5t-0.5 7.5q-2 18 -1.5 36.5t4.5 25.5q9 -1 28 -5.5t33 -23.5q16 -23 15.5 -62.5t-18.5 -93.5q-27 -82 -29.5 -127.5t18.5 -64.5q11 -9 24 -10.5t23 2.5q10 2 19.5 4t17.5 4h2h1q49 11 121.5 12.5t103.5 -26.5
q26 -24 17.5 -49.5t-10.5 -28.5q-6 -9 -4.5 -19.5t9.5 -17.5q0 -1 11.5 -15t12.5 -35q0 -15 -6.5 -29.5t-20.5 -28.5v0z" />
    <glyph glyph-name="uniE90E" unicode="&#xe90e;" 
d="M882 576q9 25 6 51t-18 48l-15 21q-4 6 -6.5 13t-3.5 14l-3 25q-3 27 -18.5 48.5t-38.5 34.5l-22 11q-7 4 -12.5 9t-9.5 11l-14 20q-15 22 -39 34.5t-50 12.5h-25q-8 0 -15 2t-14 5l-22 12q-23 12 -50 12t-50 -12l-22 -12q-7 -3 -14 -5t-15 -2h-25q-26 0 -50 -12.5
t-39 -34.5l-14 -20q-4 -6 -9.5 -11t-12.5 -9l-22 -11q-23 -13 -38.5 -34.5t-18.5 -48.5l-3 -25q-1 -7 -3.5 -14t-6.5 -13l-15 -21q-15 -22 -18 -48t6 -51l9 -24q3 -7 4 -14t0 -15l-3 -25q-4 -26 5.5 -51t29.5 -43l19 -16q6 -5 10 -11t7 -13l9 -23q7 -19 19.5 -33.5
t29.5 -23.5l-97 -239q-3 -7 -1.5 -14t6.5 -12t12 -6.5t13 1.5l108 42l47 -106q3 -6 9 -10t13 -4v0v0q7 0 13 4t9 11l99 242l99 -242q3 -7 9 -11t13 -4v0v0q7 0 13 4t9 10l47 106l108 -42q6 -3 13 -1.5t12 6.5t6.5 12t-1.5 14l-97 239q17 9 29.5 23.5t19.5 33.5l9 23
q3 7 7 13t10 11l19 16q20 18 29 43t6 51l-3 25q-1 8 0 15t4 14l9 24v0zM805 440l-19 -17q-9 -8 -16.5 -19t-12.5 -23l-9 -24q-5 -14 -16.5 -23.5t-25.5 -13.5l-24 -6q-13 -3 -24.5 -9t-21.5 -15l-19 -17q-11 -10 -25.5 -13.5t-29.5 0.5l-24 6q-13 3 -26 3t-26 -3l-24 -6
q-15 -4 -29.5 -0.5t-25.5 13.5l-19 17q-10 9 -21.5 15t-24.5 9l-24 6q-14 4 -25.5 13.5t-16.5 23.5l-9 24q-5 12 -12.5 23t-16.5 19l-19 17q-11 10 -16.5 24t-3.5 29l3 25q1 13 -0.5 26t-5.5 25l-9 23q-6 14 -4 29t10 27l15 21q7 11 12 23t6 25l3 25q2 15 10.5 27.5
t21.5 19.5l22 11q12 6 22 15t17 20l14 20q9 13 22 20t28 7h25q13 0 26 3t25 9l22 12q13 7 28 7t28 -7l22 -12q12 -6 25 -9t26 -3h25q15 0 28 -7t22 -20l14 -20q7 -11 17 -20t22 -15l22 -11q13 -7 21.5 -19.5t10.5 -27.5l3 -25q1 -13 6 -25t12 -23l15 -21q8 -12 10 -27
t-4 -29l-9 -23q-4 -12 -5.5 -25t-0.5 -26l3 -25q2 -15 -3.5 -29t-16.5 -24v0zM698 109q-9 3 -18 -0.5t-12 -12.5l-34 -76l-79 193q25 -5 49.5 1.5t43.5 23.5l19 16q6 5 12.5 8.5t13.5 5.5l4 1l78 -191l-77 31v0zM356 96q-3 9 -12 12.5t-18 0.5l-77 -31l78 191l4 -1
q7 -2 13.5 -5.5t12.5 -8.5l19 -16q15 -14 33.5 -20.5t37.5 -6.5q6 0 11.5 0.5t10.5 1.5l-79 -193l-34 76v0zM512 325q54 0 101 20.5t82.5 56t56 83t20.5 100.5q0 54 -20.5 101.5t-56 82.5t-82.5 55.5t-101 20.5t-101 -20.5t-82.5 -55.5t-56 -82.5t-20.5 -101.5
q0 -53 20.5 -100.5t56 -83t82.5 -56t101 -20.5v0zM512 798q44 0 82.5 -17t67.5 -45.5t46 -67.5t17 -83t-17 -82.5t-46 -67.5t-67.5 -45.5t-82.5 -16.5t-82.5 16.5t-67.5 45.5t-46 67.5t-17 82.5t17 83t46 67.5t67.5 45.5t82.5 17zM401 450h222q9 0 16 7t7 16v141
q0 5 -2.5 10t-6.5 9l-111 83q-6 5 -14 5t-14 -5l-111 -83q-4 -4 -6.5 -9t-2.5 -10v-141q0 -9 7 -16t16 -7v0zM425 602l87 66l87 -66v-105h-62v47q0 5 -3 8t-8 3h-28q-5 0 -8 -3t-3 -8v-47h-62v105z" />
    <glyph glyph-name="uniE90F" unicode="&#xe90f;" 
d="M512 576q-71 0 -121 -50t-50 -121q0 -70 50 -120t121 -50t121 50t50 120q0 71 -50 121t-121 50v0zM899 704h-46q-4 0 -7 2.5t-4 6.5l-22 88q-9 33 -35 53.5t-59 20.5h-428q-33 0 -59.5 -20.5t-34.5 -53.5l-22 -88q-1 -4 -4 -6.5t-7 -2.5h-46q-52 0 -88.5 -36.5
t-36.5 -88.5v-433q0 -51 36.5 -88t88.5 -37h774q52 0 88.5 37t36.5 88v433q0 52 -36.5 88.5t-88.5 36.5v0zM512 149q-53 0 -99.5 20.5t-81.5 55t-55 81t-20 99.5t20 100t55 81.5t81.5 54.5t99.5 20t99.5 -20t81.5 -54.5t55 -81.5t20 -100t-20 -99.5t-55 -81t-81.5 -55
t-99.5 -20.5zM853 491q-17 0 -29.5 12.5t-12.5 29.5q0 18 12.5 30.5t29.5 12.5q18 0 30.5 -12.5t12.5 -30.5q0 -17 -12.5 -29.5t-30.5 -12.5v0z" />
  </font>
</defs>
</svg>
